imdb
rating

4.9
Die

Die (2010)

Mystery, Thriller

Full description
quality   dvdrip

Ke$ha - Die Young [Music Video] 720p [Sbyky]

Size 67.082 MB   5 seeders     Added 2013-01-12 14:40:39

Stream torrent
Starting‥ You need BitLord! Get it from BitLord.com
To download or stream you need BitLord. Visit them at BitLord.com
 image

General
Complete name                            : Ke$ha - Die Young [Music Video] 720p [Sbyky].mp4
Format                                   : MPEG-4
Format profile                           : Base Media / Version 2
Codec ID                                 : mp42
File size                                : 64.0 MiB
Duration                                 : 3mn 32s
Overall bit rate mode                    : Variable
Overall bit rate                         : 2 529 Kbps
Encoded date                             : UTC 2012-11-09 02:02:18
Tagged date                              : UTC 2012-11-09 02:02:18
gsst                                     : 0
gstd                                     : 212345
gssd                                     : B4A7D0085HH1357547795767983
gshh                                     :

Video
ID                                       : 1
Format                                   : AVC
Format/Info                              : Advanced Video Codec
Format profile                           : High@L3.1
Format settings, CABAC                   : Yes
Format settings, ReFrames                : 1 frame
Codec ID                                 : avc1
Codec ID/Info                            : Advanced Video Coding
Duration                                 : 3mn 32s
Bit rate                                 : 2 334 Kbps
Maximum bit rate                         : 4 614 Kbps
Width                                    : 1 280 pixels
Height                                   : 720 pixels
Display aspect ratio                     : 16:9
Frame rate mode                          : Constant
Frame rate                               : 23.976 fps
Color space                              : YUV
Chroma subsampling                       : 4:2:0
Bit depth                                : 8 bits
Scan type                                : Progressive
Bits/(Pixel*Frame)                       : 0.106
Stream size                              : 59.1 MiB (92%)
Tagged date                              : UTC 2012-11-09 02:02:19

Audio
ID                                       : 2
Format                                   : AAC
Format/Info                              : Advanced Audio Codec
Format profile                           : LC
Codec ID                                 : 40
Duration                                 : 3mn 32s
Bit rate mode                            : Variable
Bit rate                                 : 192 Kbps
Maximum bit rate                         : 201 Kbps
Channel(s)                               : 2 channels
Channel positions                        : Front: L R
Sampling rate                            : 44.1 KHz
Compression mode                         : Lossy
Stream size                              : 4.86 MiB (8%)
Title                                    : IsoMedia File Produced by Google, 5-11-2011
Encoded date                             : UTC 2012-11-09 02:02:19
Tagged date                              : UTC 2012-11-09 02:02:19

Shared By Sbyky 
image		
Ke$ha - Die Young [Music Video] 720p [Sbyky].mp4 67.082 MB
Gathering some info...

Register and log in Isohunt and see no captcha anymore!

4000 symbols left
Hash 5D31FDAC4B50EA184D95197ADF26C6E8AEE18BCA

Related torrents for "Ke$ha - Die Young [Music Video] 720p [Sbyky]"

Torrent search:

hd