imdb
rating

7.9
The Hobbit: An Unexpected Journey

The Hobbit: An Unexpected Journey (2012)

Action, Adventure, Fantasy

Full description

The Hobbit An Unexpected Journey (2012) 1080p BDRip x264 AAC-KiNGDOM

Size 1.138 GB   0 seeders     Added 2013-01-12 21:24:10

Stream torrent
Starting‥ You need BitLord! Get it from BitLord.com
To download or stream you need BitLord. Visit them at BitLord.com
The Hobbit An Unexpected Journey (2012) 1080p BDRip x264 AAC-KiNGDOM\r\n\r\n\r\nVideo\r\nID : 0\r\nFormat : MPEG-4 Visual\r\nFormat profile : Advanced Simple@L5\r\nFormat settings, BVOP : 2\r\nFormat settings, QPel : No\r\nFormat settings, GMC : No warppoints\r\nFormat settings, Matrix : Default (H.263)\r\nMuxing mode : Packed bitstream\r\nCodec ID : XVID\r\nCodec ID/Hint : XviD\r\nDuration : 1h 36mn\r\nBit rate : 1 573 Kbps\r\nWidth : 720 pixels\r\nHeight : 304 pixels\r\nDisplay aspect ratio : 2.35:1\r\nFrame rate : 23.976 fps\r\nColor space : YUV\r\nChroma subsampling : 4:2:0\r\nBit depth : 8 bits\r\nScan type : Progressive\r\nCompression mode : Lossy\r\nBits/(Pixel*Frame) : 0.300\r\nStream size : 1.06 GiB (77%)\r\nWriting library : XviD 64\r\n\r\nAudio\r\nID : 1\r\nFormat : AC-3\r\nFormat/Info : Audio Coding 3\r\nMode extension : CM (complete main)\r\nFormat settings, Endianness : Big\r\nCodec ID : 2000\r\nDuration : 1h 36mn\r\nBit rate mode : Constant\r\nBit rate : 448 Kbps\r\nChannel(s) : 6 channels\r\nChannel positions : Front: L C R, Side: L R, LFE\r\nSampling rate : 48.0 KHz\r\nBit depth : 16 bits\r\nCompression mode : Lossy\r\nStream size : 309 MiB (22%)\r\nAlignment : Aligned on interleaves\r\nInterleave, duration : 42 ms (1.00 video frame)
The Hobbit An Unexpected Journey (2012) 1080p BDRip x264 AAC-KiNGDOM/extrainfoplain.png 51.713 KB
The Hobbit An Unexpected Journey (2012) 1080p BDRip x264 AAC-KiNGDOM/ExtraTorrentRG.mp4 1.515 MB
The Hobbit An Unexpected Journey (2012) 1080p BDRip x264 AAC-KiNGDOM/MOVIE.nfo 4.858 KB
Gathering some info...

Register and log in Isohunt and see no captcha anymore!

4000 symbols left
Hash c6c47afde8fe6986fae0c7f2d683e00e758ba800

Related torrents for "The Hobbit An Unexpected Journey (2012) 1080p BDRip x264 AAC-KiNGDOM"

Torrent search:

x264 2012 fullhd bd