imdb
rating

7.0
Notting Hill

Notting Hill (1999)

Comedy

Full description

Notting Hill (1999) [XviD - Italian English Ac3 5.1 - Sub Eng] MIRCrew [TNT Village]

Size 1.906 GB   66 seeders     Added 2013-01-12 23:00:44

Stream torrent
Starting‥ You need BitLord! Get it from BitLord.com
10
To download or stream you need BitLord. Visit them at BitLord.com
Notting Hill (1999) [XviD - Italian English Ac3 5.1 - Sub Eng] MIRCrew [TNT Village]


[color=#9999FF][b][IMG]image[/IMG]


Notting Hill (1999) 


[URL=http://www.imdb.com/title/tt0125439/][IMG]image[/IMG][/URL]

[IMG]image[/IMG]

[IMG]image[/IMG]

Titolo originale 	Notting Hill
Lingua originale 	inglese
Paese di produzione 	USA, Regno Unito
Anno 	1999
Durata 	124 min

Rapporto 	2,35:1
Genere 	commedia, romantico
Regia 	Roger Michell
Soggetto 	Richard Curtis
Sceneggiatura 	Richard Curtis
Produttore 	Duncan Kenworthy
Produttore esecutivo 	Tim Bevan, Richard Curtis, Eric Fellner
Casa di produzione 	Polygram Filmed Entertainment, Working Title Films
Distribuzione (Italia) 	Universal Studios
Fotografia 	Michael Coulter
Musiche 	Trevor Jones
Scenografia 	Stuart Craig
Costumi 	Shuna Harwood
Trucco 	Norma Webb, Jenny Shircore, Mai Layton, Elizabeth Yianni-Georgiou

[IMG]image[/IMG]

[IMG]image[/IMG]


[IMG]image[/IMG]

 Hugh Grant: William Thacker
 Julia Roberts: Anna Scott
 Rhys Ifans: Spike
 Emma Chambers: Honey Thacker
 Tim McInnerny: Max
 Gina McKee: Bella
 Hugh Bonneville: Bernie
 James Dreyfus: Martin
 Lorelei King: Karen
 Julian Rhind-Tutt: Tarquin
 John Shrapnel: Jeremy
 Alec Baldwin: Jeff King
 Richard McCabe: Tony
 Mischa Barton: Attrice dodicenne
 Emma Bernard: Keziah, la fruttariana
 Dylan Moran: Rufus
 Emily Mortimer: ragazza perfetta

Doppiatori italiani

 Angelo Maggi: William Thacker
 Laura Boccanera: Anna Scott
 Roberto Draghetti: Spike
 Roberta Gasparetti: Honey Thacker
 Mino Caprio: Max
 Francesca Fiorentini: Bella
 Stefano Masciarelli: Bernie
 Danilo De Girolamo: Martin
 Cristiana Lionello: Karen
 Gianluca Tusco: Tarquin
 Ennio Coltorti: Jeremy
 Nino D'Agata: Jeff King
 Roberto Stocchi: Tony
 Valentina Mari: Attrice dodicenne
 Patrizia Bracaglia: Keziah, la fruttariana


[IMG]image[/IMG]

[IMG]image[/IMG]

[IMG]image[/IMG]

Nel quartiere londinese di Notting Hill, William Thacker è il proprietario di una modesta libreria, specializzata in libri di viaggio. Will è divorziato e abita con un coinquilino di nome 

Spike, un eccentrico pittore gallese.
Il protagonista incontra Anna Scott, una star del cinema che si trova nella capitale inglese per promuovere un film, quando lei entra nel suo negozio. Poco dopo, urtandosi casualmente per 

strada, Will rovescia del succo d'arancia su di sé e sulla t-shirt dell'attrice; il ragazzo la invita a entrare nella sua vicina abitazione per ripulirsi e Anna accetta. La ragazza si 

cambia e William cerca di essere gentile con lei, che tuttavia rifiuta le sue offerte ed esce. Anna però suona di nuovo il campanello, avendo dimenticato una busta nella casa di Thacker; 

quando sono faccia a faccia di fronte alla porta di casa, Anna improvvisamente lo bacia. L'arrivo di Spike li interrompe bruscamente e l'attrice se ne va, chiedendo riservatezza per quanto 

avvenuto............


Storyline


Every man's dream comes true for William Thacker, an unsuccessful Notting Hill bookstore owner, when Anna Scott, the world's most beautiful woman and best-liked actress, enters his shop. A 

little later, he still can't believe it himself, William runs into her again - this time spilling orange juice over her. Anna accepts his offer to change in his nearby apartment, and thanks 

him with a kiss, which seems to surprise her even more than him. Eventually, Anna and William get to know each other better over the months, but being together with the world's most wanted 

woman is not easy - neither around your closest friends, nor in front of the all-devouring press.................

[IMG]image[/IMG]



[IMG]image[/IMG]

General
Complete name : Notting Hill (1999).avi
Format : AVI
Format/Info : Audio Video Interleave
File size : 1.76 GiB
Duration : 1h 58mn
Overall bit rate : 2 115 Kbps
Writing application : VirtualDubMod 1.5.4.1 (build 2178/release)
Writing library : VirtualDubMod build 2178/release

Video
ID : 0
Format : MPEG-4 Visual
Format profile : Advanced Simple@L5
Format settings, BVOP : Yes
Format settings, QPel : No
Format settings, GMC : No warppoints
Format settings, Matrix : Custom
Codec ID : XVID
Codec ID/Hint : XviD
Duration : 1h 58mn
Bit rate : 1 339 Kbps
Width : 720 pixels
Height : 320 pixels
Display aspect ratio : 2.25:1
Frame rate : 25.000 fps
Color space : YUV
Chroma subsampling : 4:2:0
Bit depth : 8 bits
Scan type : Progressive
Bits/(Pixel*Frame) : 0.232
Stream size : 1.11 GiB (63%)
Writing library : XviD 1.2.1 (UTC 2008-12-04)

Audio #1
ID : 1
Format : AC-3
Format/Info : Audio Coding 3
Mode extension : CM (complete main)
Codec ID : 2000
Duration : 1h 58mn
Bit rate mode : Constant
Bit rate : 384 Kbps
Channel(s) : 6 channels
Channel positions : Front: L C R, Side: L R, LFE
Sampling rate : 48.0 KHz
Bit depth : 16 bits
Stream size : 327 MiB (18%)
Alignment : Aligned on interleaves
Interleave, duration : 96 ms (2.40 video frames)
Interleave, preload duration : 96 ms
Language : Italian

Audio #2
ID : 2
Format : AC-3
Format/Info : Audio Coding 3
Mode extension : CM (complete main)
Codec ID : 2000
Duration : 1h 58mn
Bit rate mode : Constant
Bit rate : 384 Kbps
Channel(s) : 6 channels
Channel positions : Front: L C R, Side: L R, LFE
Sampling rate : 48.0 KHz
Bit depth : 16 bits
Stream size : 327 MiB (18%)
Alignment : Aligned on interleaves
Interleave, duration : 96 ms (2.40 video frames)
Interleave, preload duration : 96 ms
Language : English



[IMG]image[/IMG]
[/b][/color]


Notting Hill (1999).avi 1.886 GB
Notting Hill (1999).idx 212.291 KB
Notting Hill (1999).sub 19.597 MB
Gathering some info...

Register and log in Isohunt and see no captcha anymore!

4000 symbols left
Hash 4099678ABCFC9D5934E0CC356A2E9E5A8021F07B

Related torrents for "Notting Hill (1999) [XviD - Italian English Ac3 5.1 - Sub Eng] MIRCrew [TNT Village]"

Torrent search:

italian english 1999