Qué esperar cuando estás esperando[MicroHD-1080P]-[Spanish-España-AAC-DTS-AC3+SUB-PS3-XBOX360] by addiction mp4

Size 2.968 GB   0 seeders     Added 2013-01-12 23:36:13

Stream torrent
Starting‥ You need BitLord! Get it from BitLord.com
To download or stream you need BitLord. Visit them at BitLord.com
Basada en el libro de Heidi Murkoff, esta cinta presenta las aventuras de cinco parejas que esperan un hijo. Jules (Cameron Diaz), estrella de un programa de fitness, se emociona tras descubrir que está embarazada, pero debe de afrontar las responsabilidades que esto implica; Wendy (Elizabeth Banks) descubre con su esposo que están esperando gemelos; la fotógrafa Holly (Jennifer Lopez) quiere adoptar un niño, y una joven pareja -Rosie (Anna Kendrick) y Marco (Chace Crawford)- se llevan la sorpresa de sus vidas cuando encaran los resultados de un impulsivo acto de pasión.
Más info aquí:http://www.imdb.com/title/tt1586265/plotsummary
Mediainfo:
General
Complete name                            : /home/Vídeos/Películas/Qué esperar cuando estás esperando/Qué esperar cuando estás esperando[MicroHD-1080P]-[Spanish-España-AAC-DTS-AC3+SUB-PS3-XBOX360].by.addiction.mp4
Format                                   : MPEG-4
Format profile                           : Base Media
Codec ID                                 : isom
File size                                : 2.76 GiB
Duration                                 : 1h 50mn
Overall bit rate                         : 3 589 Kbps
Writing application                      : Lavf54.29.104
Video
ID                                       : 1
Format                                   : AVC
Format/Info                              : Advanced Video Codec
Format profile                           : High@L5.0
Format settings, CABAC                   : Yes
Format settings, ReFrames                : 8 frames
Codec ID                                 : avc1
Codec ID/Info                            : Advanced Video Coding
Duration                                 : 1h 50mn
Bit rate                                 : 2 811 Kbps
Width                                    : 1 920 pixels
Height                                   : 1 080 pixels
Display aspect ratio                     : 16:9
Frame rate mode                          : Variable
Frame rate                               : 23.976 fps
Color space                              : YUV
Chroma subsampling                       : 4:2:0
Bit depth                                : 8 bits
Scan type                                : Progressive
Bits/(Pixel*Frame)                       : 0.057
Stream size                              : 2.17 GiB (78%)
Writing library                          : x264 core 120
Encoding settings                        : cabac=1 / ref=8 / deblock=1:-2:-1 / analyse=0x3:0x113 / me=umh / subme=7 / psy=1 / psy_rd=1,00:0,00 / mixed_ref=1 / me_range=32 / chroma_me=1 / trellis=1 / 8x8dct=1 / cqm=0 / deadzone=21,11 / fast_pskip=1 / chroma_qp_offset=-2 / threads=6 / sliced_threads=0 / nr=0 / decimate=1 / interlaced=0 / bluray_compat=0 / constrained_intra=0 / bframes=3 / b_pyramid=0 / b_adapt=2 / b_bias=0 / direct=1 / weightb=1 / open_gop=0 / weightp=1 / keyint=240 / keyint_min=24 / scenecut=40 / intra_refresh=0 / rc_lookahead=10 / rc=crf / mbtree=1 / crf=23,0 / qcomp=0,60 / qpmin=3 / qpmax=69 / qpstep=4 / ip_ratio=1,40 / aq=1:1,00
Language                                 : English
Color primaries                          : BT.709
Transfer characteristics                 : BT.709
Matrix coefficients                      : BT.709
Audio
ID                                       : 2
Format                                   : DTS
Format/Info                              : Digital Theater Systems
Mode                                     : 16
Format settings, Endianness              : Big
Codec ID                                 : A9
Duration                                 : 1h 50mn
Bit rate mode                            : Constant
Bit rate                                 : 768 Kbps
Channel(s)                               : 6 channels
Channel positions                        : Front: L C R, Side: L R, LFE
Sampling rate                            : 48.0 KHz
Bit depth                                : 24 bits
Compression mode                         : Lossy
Delay relative to video                  : 42ms
Stream size                              : 606 MiB (21%)
Language                                 : Spanish		
Qué esperar cuando estás esperando[MicroHD-1080P]-[Spanish-España-AAC-DTS-AC3+SUB-PS3-XBOX360].by.addiction.mp4 2.968 GB
Gathering some info...

Register and log in Isohunt and see no captcha anymore!

4000 symbols left
Hash 114B3839EC1AAD4C4592DAB377A2427B8C7F9945