Luv Shuv Tey Chicken Khurana - DVDRip - XviD - 1CD - RockStar - Team BDT

Size 731.058 MB   0 seeders     Added 2013-01-13 20:00:20

Stream torrent
Starting‥ You need BitLord! Get it from 1BitLord.com
To download or stream you need BitLord. Visit them at BitLord.com
[center]

[size=200][color=purple]WwW.BollYDes!.CoM[/color][/size]

[size=200][color=purple]BollyDesi - Desi P2P Entertainment Site - You Get Everything Here[/color][/size]

[size=200][color=purple]Team BDT - Bolly Desi Torrents[/color][/size]

[img]image[/img]


[color=purple][size=200]Luv Shuv Tey Chicken Khurana - DVDRip - XviD - 1CD - RockStar - Team BDT[/color][/size]

[img]image[/img]

[color=gray][size=200]R!P !nfO[/size][/color]

[quote]
General
Complete name : Luv Shuv Tey Chicken Khurana - DVDRip - XviD - 1CD - RockStar

Format : AVI
Format profile : Base Media
Codec ID : isom
File size : 700MiB
Overall bit rate mode : Variable
Overall bit rate : 434 Kbps


Video
ID : 1
Format : AVC
Format/Info : AVI
Format profile : High@L2.2
Format settings, CABAC : Yes
Format settings, ReFrames : 5 frames
Codec ID : avc1
Codec ID/Info : Advanced Video Coding
Duration : 1h 40mn
Bit rate : 302 Kbps
Maximum bit rate : 1 470 Kbps
Width : 624 pixels
Height : 272 pixels
Display aspect ratio : 2.25:1
Frame rate mode : Constant
Frame rate : 29.970 fps
Color space : YUV
Chroma subsampling : 4:2:0
Bit depth : 8 bits
Scan type : Progressive
Bits/(Pixel*Frame) : 0.059
Stream size : 216 MiB (70%)

Audio
ID : 2
Format : MP3
Codec ID : 40
Bit rate mode : Variable
Bit rate : 128 Kbps
Maximum bit rate : 152 Kbps
Channel(s) : 2 channels
Channel positions : Front: L R
Sampling rate : 48.0 KHz / 24.0 KHz
Compression mode : Lossy
Stream size : 91.5 MiB (30%)
[/quote]


[color=gray][size=200]ScreenS[/size][/color]

[IMG]image[/IMG]

[img]image[/img]

[img]image[/img]

[img]image[/img]

[img]image[/img]

[img]image[/img]

[img]image[/img]

[img]image[/img]


[url="https://www.facebook.com/RockStarTorrents"][color=red][size=200]Find mE On FaceBooK[/size][/color][/url]

[url="https://www.facebook.com/p2pbollydesi"][size=200][color=blue]Find us on FaceBooK[/color][/size][/url]

[color=black][size=200]All Credits Goes To : Team BDT -=: BollyDes! :=-[/size][/color]

[color=purple][size=200]WwW.BollYDes!.CoM[/size][/color]

[size=200][color=purple]BollyDesi - Desi P2P Entertainment Site - You Get Everything Here[/color][/size]

[size=200][color=purple]Team BDT - Bolly Desi Torrents[/color][/size] 

[/center]
Luv Shuv Tey Chicken Khurana - DVDRip - XviD - 1CD - RockStar.srt 140.762 KB
Luv Shuv Tey Chicken Khurana - DVDRip - XviD - 1CD - RockStar.avi 730.917 MB
Find Me.txt 80 B
Gathering some info...

Register and log in Isohunt and see no captcha anymore!

4000 symbols left
Hash 65D09FA83A6732107ED216E0B04006C03FF36748