imdb
rating

7.7
Video Game High School

Video Game High School (2012)

Action, Romance, Sci-Fi

Full description

Video Game High School 2012 BRRiP XViD 1MPERiUM

Size 1.605 GB   0 seeders     Added 2013-01-13 21:36:10

Stream torrent
Starting‥ You need BitLord! Get it from BitLord.com
To download or stream you need BitLord. Visit them at BitLord.com
Release Name: Video Game High School 2012 BRRiP XViD 1MPERiUM

Poster: image

IMDB:   http://www.imdb.com/title/tt2170584/

Format                                   : AVI
Format/Info                              : Audio Video Interleave
File size                                : 1.48 GiB
Duration                                 : 2h 4mn
Overall bit rate                         : 1 713 Kbps
Writing application                      : VirtualDubMod 1.5.10.2 (build 2540/release)
Writing library                          : VirtualDubMod build 2540/release

Video
ID                                       : 0
Format                                   : MPEG-4 Visual
Format profile                           : Advanced Simple@L5
Format settings, BVOP                    : 2
Format settings, QPel                    : No
Format settings, GMC                     : No warppoints
Format settings, Matrix                  : Default (H.263)
Muxing mode                              : Packed bitstream
Codec ID                                 : XVID
Codec ID/Hint                            : XviD
Duration                                 : 2h 4mn
Bit rate                                 : 1 319 Kbps
Width                                    : 720 pixels
Height                                   : 400 pixels
Display aspect ratio                     : 16:9
Frame rate                               : 23.976 fps
Color space                              : YUV
Chroma subsampling                       : 4:2:0
Bit depth                                : 8 bits
Scan type                                : Progressive
Compression mode                         : Lossy
Bits/(Pixel*Frame)                       : 0.191
Stream size                              : 1.14 GiB (77%)
Writing library                          : XviD 64

Audio
ID                                       : 1
Format                                   : AC-3
Format/Info                              : Audio Coding 3
Mode extension                           : CM (complete main)
Format settings, Endianness              : Big
Codec ID                                 : 2000
Duration                                 : 2h 4mn
Bit rate mode                            : Constant
Bit rate                                 : 384 Kbps
Channel(s)                               : 2 channels
Channel positions                        : Front: L R
Sampling rate                            : 48.0 KHz
Bit depth                                : 16 bits
Compression mode                         : Lossy
Stream size                              : 341 MiB (22%)
Alignment                                : Split accross interleaves
Interleave, duration                     : 42 ms (1.00 video frame)
Interleave, preload duration             : 500 ms



Cast: Josh Blaylock, Johanna Braddy, Jimmy Wong

Plot: Best friends, first loves, and finding that perfect head-shot. 

Screens: 
 
image
 
image
 
image		
Sample.avi 10.549 MB
Torrent Downloaded From ExtraTorrent.com.txt 339 B
Video Game High School 2012 BRRiP XViD 1MPERiUM.avi 1.594 GB
Gathering some info...

Register and log in Isohunt and see no captcha anymore!

4000 symbols left
Hash 6C646382613192E25FBDC23C11273A7499EB207D

Related torrents for "Video Game High School 2012 BRRiP XViD 1MPERiUM"

Torrent search:

2012 bd