imdb
rating

4.6
Retribution

Retribution (2013)

TV Movie, Thriller

Full description

Resident Evil Retribution(2012) 1080p[Dual Audio][ENG(5.1)-HINDI(5.1)]~{PHDR}~

Size 3.844 GB   0 seeders     Added 2013-01-13 22:52:38

Stream torrent
Starting‥ You need BitLord! Get it from 1BitLord.com
To download or stream you need BitLord. Visit them at BitLord.com
[center][size=200][b]Resident Evil Retribution(2012) 1080p[Dual Audio][ENG(5.1)-HINDI(5.1)]~{PHDR}~[/b][/size]


[IMG]image[/IMG]



[img]image[/img]
[IMG]image

[/IMG]

[img]image[/img]

Storyline The Umbrella Corporation's deadly T-virus continues to 

ravage the Earth, transforming the global population into legions of 

the flesh eating Undead. The human race's last and only hope, Alice, 

awakens in the heart of Umbrella's most clandestine operations 

facility and unveils more of her mysterious past as she delves further 

into the complex.

Cast
Milla Jovovich... Alice
Sienna Guillory ... Jill Valentine
Michelle Rodriguez... Rain
Aryana Engineer ... Becky
Bingbing Li ... Ada Wong
Boris Kodjoe ... Luther West
Johann Urb ... Leon S. Kennedy
Robin Kasyanov ... Sergei
Kevin Durand ... Barry Burton
Ofilio Portillo ... Tony
Oded Fehr ... Todd / Carlos
Colin Salmon ... James 'One' Shade
Shawn Roberts ... Albert Wesker 


[img]image[/img]


General

Complete name : Resident Evil Retribution(2012) 1080p[Dual Audio][ENG(5.1)-HINDI(5.1)]~{PHDR}~
Format : Matroska
Format version : Version 4 / Version 2
File size : 3.53 GiB
Duration : 1h 35mn
Overall bit rate : 5 288 Kbps
Movie name : Resident Evil Retribution(2012) 1080p[Dual Audio][ENG(5.1)-HINDI(5.1)]~{PHDR}~


Video
ID : 1
Format : AVC
Format/Info : Advanced Video Codec
Format profile : High@L4.1
Format settings, CABAC : Yes
Format settings, ReFrames : 4 frames
Muxing mode : Header stripping
Codec ID : V_MPEG4/ISO/AVC
Duration : 1h 35mn
Bit rate : 3 999 Kbps
Width : 1 920 pixels
Height : 800 pixels
Display aspect ratio : 2.40:1
Frame rate mode : Constant
Frame rate : 23.976 fps
Color space : YUV
Chroma subsampling : 4:2:0
Bit depth : 8 bits
Scan type : Progressive
Bits/(Pixel*Frame) : 0.109
Stream size : 2.61 GiB (74%)
Default : Yes
Forced : No

Audio #1
ID : 2
Format : AC-3
Format/Info : Audio Coding 3
Mode extension : CM (complete main)
Format settings, Endianness : Big
Muxing mode : Header stripping
Codec ID : A_AC3
Duration : 1h 35mn
Bit rate mode : Constant
Bit rate : 640 Kbps
Channel(s) : 6 channels
Channel positions : Front: L C R, Side: L R, 

LFE
Sampling rate : 48.0 KHz
Bit depth : 16 bits
Compression mode : Lossy
Stream size : 438 MiB (12%)
Title : BLURAY~{PHDR}~
Language : Hindi
Default : Yes
Forced : No

Audio #2
ID : 3
Format : AC-3
Format/Info : Audio Coding 3
Mode extension : CM (complete main)
Format settings, Endianness : Big
Muxing mode : Header stripping
Codec ID : A_AC3
Duration : 1h 35mn
Bit rate mode : Constant
Bit rate : 640 Kbps
Channel(s) : 6 channels
Channel positions : Front: L C R, Side: L R, 

LFE
Sampling rate : 48.0 KHz
Bit depth : 16 bits
Compression mode : Lossy
Stream size : 438 MiB (12%)
Title : BLURAY
Language : English
Default : No
Forced : No

Text #1
ID : 4
Format : PGS
Muxing mode : zlib
Codec ID : S_HDMV/PGS
Codec ID/Info : The same subtitle format 

used on BDs/HD-DVDs
Title : BLURAY
Language : Hindi
Default : Yes
Forced : No

Text #2
ID : 5
Format : PGS
Muxing mode : zlib
Codec ID : S_HDMV/PGS
Codec ID/Info : The same subtitle format 

used on BDs/HD-DVDs
Title : SDH
Language : English
Default : No
Forced : No

Text #3
ID : 6
Format : PGS
Muxing mode : zlib
Codec ID : S_HDMV/PGS
Codec ID/Info : The same subtitle format 

used on BDs/HD-DVDs
Language : English
Default : No
Forced : No

Menu
00:00:00.000 : en:00:00:00.000
00:07:43.046 : en:00:07:43.046
00:14:32.538 : en:00:14:32.538
00:21:38.839 : en:00:21:38.839
00:25:39.329 : en:00:25:39.329
00:29:31.186 : en:00:29:31.186
00:34:16.846 : en:00:34:16.846
00:39:14.769 : en:00:39:14.769
00:45:29.435 : en:00:45:29.435
00:50:27.441 : en:00:50:27.441
00:54:42.070 : en:00:54:42.070
01:00:14.861 : en:01:00:14.861
01:05:38.476 : en:01:05:38.476
01:11:22.904 : en:01:11:22.904
01:16:15.571 : en:01:16:15.571
01:21:29.384 : en:01:21:29.384


[img]image[/img]


[URL=http://www.imagebam.com/image/576050231918182][IMG]image[/IMG][/URL] [URL=http://www.imagebam.com/image/9e0fb0231918298][IMG]image[/IMG][/URL] [URL=http://www.imagebam.com/image/48a951231918377][IMG]image[/IMG][/URL] [URL=http://www.imagebam.com/image/e0a061231918465][IMG]image[/IMG][/URL] [URL=http://www.imagebam.com/image/438d0f231918517][IMG]image[/IMG][/URL] [URL=http://www.imagebam.com/image/e79a40231918580][IMG]image[/IMG][/URL] [URL=http://www.imagebam.com/image/98a194231918643][IMG]image[/IMG][/URL] [URL=http://www.imagebam.com/image/bf979b231918795][IMG]image[/IMG][/URL] [URL=http://www.imagebam.com/image/ffdafb231918908][IMG]image[/IMG][/URL] [URL=http://www.imagebam.com/image/6ab57a231919027][IMG]image[/IMG][/URL] 


[img]image[/img]

[url=https://www.facebook.com/groups/172553342755574/][img]image[/IMG][/url]

NOTE :
 
1. SEEDING FROM HIGH SPEED SERVER, ENJOY MAX DOWNLOAD SPEED ;)
2. VIDEO ENCODED FROM OWN BLURAY, HINDI & ENGLISH SDH SUBTITLES FROM OWN BLURAY
3. AUDIO SOURCE BLURAY[THANKS TO SNOWDON]


TAMIL AND TELGU AUDIO FOR THOSE WHO NEED

http://paste2.org/p/2742173

FIRST ON NET AND PROBABLY THE BEST ON NET :P


HAPPY LOHRI TO EVERYONE...!!!


[color=blue][b][size=200]CLICK ON LIKE BUTTON TO CONNECT WITH MY PAGE ON FACEBOOK SO U CAN GET ALL THE LATEST STUFF, UPCOMING ETC ON IT[/size]

[/b][/color]

[url=http://www.facebook.com/plugins/likebox.php?href=http%3A%2F%2Fwww.facebook.com%2Fphdrthegreat&width=292&height=590&colorscheme=light&show_faces=true&border_color&stream=true&header=true][IMG]

image[/IMG][/url]
COVER.jpg 105.665 KB
PHDR.nfo 6.344 KB
READ THIS TEXT[PHDR].txt 545 B
Gathering some info...

Register and log in Isohunt and see no captcha anymore!

4000 symbols left
Hash BBF7354C61EDCC30D12F389350D7CB7B8205B8CD

Related torrents for "Resident Evil Retribution(2012) 1080p[Dual Audio][ENG(5.1)-HINDI(5.1)]~{PHDR}~"

Torrent search:

english hindi 2012 fullhd