imdb
rating

7.2
Shine a Light

Shine a Light (2008)

Documentary, Music

Full description
quality   dvdr dvd x264 fullhd bd dvdrip hdtv hd

Stones Scorese Shine A Light Mp4 694p AAC Multichannel

Size 3.347 GB   0 seeders     Added 2013-01-13 22:55:35

Stream torrent
Starting‥ You need BitLord! Get it from 1BitLord.com
To download or stream you need BitLord. Visit them at BitLord.com
Stones Scorese Shine A Light Mp4 694p AAC Multichannel

Track List:
Jumping Jack Flash
Shattered
She Was Hot
All Down the Line
Loving Cup ΓÇô featuring Jack White III
As Tears Go By
Some Girls
Just My Imagination (Running Away With Me)
Far Away Eyes
Champagne and Reefer ΓÇô featuring Buddy Guy
Tumblin Dice
You Got the Silver
Connection
Sympathy for the Devil
Live With Me ΓÇô featuring Christina Agulera
Start Me Up
Brown Sugar
(I Can't Get No) SatisfactionΓÇ£


General
Stones Scorese Shine A Light Mp4 694p AAC Multichannel
Format : MPEG-4
Format profile : Base Media / Version 2
Codec ID : mp42
File size : 3.12 GiB
Duration : 2h 2mn
Overall bit rate mode : Variable
Overall bit rate : 3 646 Kbps
Encoded date : UTC 2013-01-13 08:47:20
Tagged date : UTC 2013-01-13 09:58:27

Video
ID : 1
Format : AVC
Format/Info : Advanced Video Codec
Format profile : High@L4.1
Format settings, CABAC : Yes
Format settings, ReFrames : 2 frames
Codec ID : avc1
Codec ID/Info : Advanced Video Coding
Duration : 2h 2mn
Bit rate mode : Variable
Bit rate : 3 146 Kbps
Width : 1 280 pixels
Height : 694 pixels
Display aspect ratio : 1.85:1
Frame rate mode : Variable
Frame rate : 23.976 fps
Minimum frame rate : 23.974 fps
Maximum frame rate : 90.000 fps
Color space : YUV
Chroma subsampling : 4:2:0
Bit depth : 8 bits
Scan type : Progressive
Bits/(Pixel*Frame) : 0.148
Stream size : 2.69 GiB (86%)
Writing library : x264 core
Encoded date : UTC 2013-01-13 08:47:20
Tagged date : UTC 2013-01-13 09:58:20
Color primaries : BT.709
Transfer characteristics : BT.709
Matrix coefficients : BT.709

Audio
ID : 2
Format : AAC
Format/Info : Advanced Audio Codec
Format profile : LC
Codec ID : 40
Duration : 2h 2mn
Bit rate mode : Variable
Bit rate : 496 Kbps
Maximum bit rate : 652 Kbps
Channel(s) : 6 channels
Channel positions : Front: L C R, Side: L R, LFE
Sampling rate : 48.0 KHz
Compression mode : Lossy
Stream size : 434 MiB (14%)
Encoded date : UTC 2013-01-13 08:47:20
Tagged date : UTC 2013-01-13 09:57:56		
Stones Scorese Shine A Light Mp4 694p AAC Multichannel.mp4 3.347 GB
Gathering some info...

Register and log in Isohunt and see no captcha anymore!

4000 symbols left
Hash 4ED06367161DA5839C0D21F815B1255B03D8B6A4

Related torrents for "Stones Scorese Shine A Light Mp4 694p AAC Multichannel"