imdb
rating

4.7
Ready

Ready (2011)

Action, Comedy, Drama, Romance

Full description
quality   dvdrip hd screener x264

Bobs Burgers 311 720p XBOX360/PS3 READY

Size 395.201 MB   0 seeders     Added 2013-01-14 10:46:34

Stream torrent
Starting‥ You need BitLord! Get it from BitLord.com
To download or stream you need BitLord. Visit them at BitLord.com
Bob's Burgers 311 720p XBOX360/PS3 READY

[[[[SEEEEEEDDDDD]]]]


Video
ID                                       : 0
Format                                   : MPEG-4 Visual
Format profile                           : Simple@L3
Format settings, BVOP                    : No
Format settings, QPel                    : No
Format settings, GMC                     : No warppoints
Format settings, Matrix                  : Default (H.263)
Codec ID                                 : XVID
Codec ID/Hint                            : XviD
Duration                                 : 21mn 37s
Source duration                          : 21mn 37s
Bit rate                                 : 2 111 Kbps
Width                                    : 1 280 pixels
Height                                   : 720 pixels
Display aspect ratio                     : 16:9
Frame rate                               : 24.000 fps
Color space                              : YUV
Chroma subsampling                       : 4:2:0
Bit depth                                : 8 bits
Scan type                                : Progressive
Compression mode                         : Lossy
Bits/(Pixel*Frame)                       : 0.095
Stream size                              : 327 MiB (87%)
Writing library                          : XviD 63

Audio
ID                                       : 1
Format                                   : MPEG Audio
Format version                           : Version 1
Format profile                           : Layer 3
Mode                                     : Joint stereo
Codec ID                                 : 55
Codec ID/Hint                            : MP3
Duration                                 : 21mn 37s
Bit rate mode                            : Variable
Bit rate                                 : 313 Kbps
Channel(s)                               : 2 channels
Sampling rate                            : 48.0 KHz
Compression mode                         : Lossy
Stream size                              : 48.4 MiB (13%)
Alignment                                : Aligned on interleaves
Interleave, duration                     : 24 ms (0.58 video frame)
Interleave, preload duration             : 498 ms

		
BB S03E11.avi 395.201 MB
Gathering some info...

Register and log in Isohunt and see no captcha anymore!

4000 symbols left
Hash 504cb3cf458668f18cb809f163b68200d0b822c9

Related torrents for "Bobs Burgers 311 720p XBOX360/PS3 READY"

Torrent search:

hd