Molly Anty Rocks (2012) Malayalam Movie SCREENER XviD - Exclusiv

Size 657.628 MB   41 seeders     Added 2013-01-14 15:53:26

Stream torrent
Starting‥ You need BitLord! Get it from 1BitLord.com
To download or stream you need BitLord. Visit them at BitLord.com
[img]image[/img]

[quote]

Info:

Format : AVI
Format/Info : Audio Video Interleave
File size : 627 MiB
Duration : 2h 3mn
Overall bit rate : 707 Kbps

Video
ID : 0
Format : AVC
Format/Info : Advanced Video Codec
Format profile : High@L2.1
Format settings, CABAC : Yes
Format settings, ReFrames : 3 frames
Codec ID : H264
Duration : 2h 3mn
Bit rate : 630 Kbps
Width : 624 pixels
Height : 256 pixels
Display aspect ratio : 2.40:1
Frame rate mode : Variable
Frame rate : 29.970 fps
Color space : YUV
Chroma subsampling : 4:2:0
Bit depth : 8 bits
Scan type : Progressive
Bits/(Pixel*Frame) : 0.132
Stream size : 558 MiB (89%)
Writing library : x264 core 120 r2151 a3f4407

Audio
ID : 1
Format : MPEG Audio
Format version : Version 1
Format profile : Layer 3
Codec ID : 55
Codec ID/Hint : MP3
Duration : 2h 3mn
Source duration : 2h 3mn
Bit rate mode : Constant
Bit rate : 64.0 Kbps
Channel(s) : 2 channels
Sampling rate : 48.0 KHz
Compression mode : Lossy
Stream size : 56.7 MiB (9%)
Alignment : Split accross interleaves
Interleave, duration : 24 ms (0.72 video frame)

[/quote]


Screens:

[img]image[/img]

[img]image[/img]

[img]image[/img]

[img]image[/img]

[img]image[/img]

[img]image[/img]

[img]image[/img]

[img]image[/img]

[img]image[/img]

[img]image[/img]

[img]image[/img]
Molly Aunty Rocks (2012) Malayalam Movie SCREENER XviD - Exclusive.avi 657.628 MB
readme.txt 64 B
Torrent downloaded from AhaShare.com.txt 65 B
Gathering some info...

Register and log in Isohunt and see no captcha anymore!

4000 symbols left
Hash 2B992C69B76D388155F96771038ADA6BE95E62B2