imdb
rating

7.2
Ruby Sparks

Ruby Sparks (2012)

Comedy, Drama, Fantasy, Romance

Full description

Ruby Sparks 2012 DVDrip Eng Skandale

Size 1.433 GB   5 seeders     Added 2013-01-14 19:20:54

Stream torrent
Starting‥ You need BitLord! Get it from BitLord.com
To download or stream you need BitLord. Visit them at BitLord.com
[IMG]image[/IMG]
Verenigde Staten
Komedie / Romantiek
104 minuten

geregisseerd door Jonathan Dayton en Valerie Faris
met Paul Dano, Zoe Kazan en Annette Bening

Calvin (Dano) is een schrijver die in zijn jongere jaren fenomenale successen heeft weten te behalen, maar nu worstelt met het schrijven en met zijn romantische leven. Maar dan boekt hij eindelijk weer eens succes met een eigen verzonnen karakter genaamd Ruby. Als Calvin een paar weken later Ruby in levende lijve thuis op de bank heeft zitten, is hij van slag en verbijsterd dat zijn gecreëerde karakter het echte leven heeft weten te vinden in de vorm van een levend ademhalend persoon.


A novelist struggling with writer's block finds romance in a most unusual way: by creating a female character he thinks will love him, then willing her into existence.

http://www.imdb.com/title/tt1839492/

General
Complete name : Ruby Sparks 2012.avi
Format : AVI
Format/Info : Audio Video Interleave
File size : 1.33 GiB
Duration : 1h 39mn
Overall bit rate : 1 914 Kbps

Video
ID : 0
Format : MPEG-4 Visual
Format profile : Simple@L3
Format settings, BVOP : No
Format settings, QPel : No
Format settings, GMC : No warppoints
Format settings, Matrix : Default (H.263)
Codec ID : XVID
Codec ID/Hint : XviD
Duration : 1h 39mn
Bit rate : 1 455 Kbps
Width : 624 pixels
Height : 336 pixels
Display aspect ratio : 1.857
Frame rate : 25.000 fps
Color space : YUV
Chroma subsampling : 4:2:0
Bit depth : 8 bits
Scan type : Progressive
Bits/(Pixel*Frame) : 0.278
Stream size : 1.01 GiB (76%)
Writing library : XviD 1.1.2 (UTC 2006-11-01)

Audio
ID : 1
Format : AC-3
Format/Info : Audio Coding 3
Mode extension : CM (complete main)
Codec ID : 2000
Duration : 1h 39mn
Bit rate mode : Constant
Bit rate : 448 Kbps
Channel(s) : 6 channels
Channel positions : Front: L C R, Side: L R, LFE
Sampling rate : 48.0 KHz
Stream size : 320 MiB (23%)
Alignment : Aligned on interleaves
Interleave, duration : 32 ms (0.80 video frame)








-----------------------------------------------------------------------
Bezoek ook eens http://www.film-test.nl 
voor de bijbehorende nederlandse ondertitels en meer
Cover/f43fa6afa860c16c436cca4e4d21f125.jpg 229.08 KB
flyer.jpg 33.678 KB
New Dutch Site.txt 117 B
Gathering some info...

Register and log in Isohunt and see no captcha anymore!

4000 symbols left
Hash 30F31AB728A001EC411CE35A40A3A752842B3BF2

Related torrents for "Ruby Sparks 2012 DVDrip Eng Skandale"

Torrent search:

dvdrip english 2012