imdb
rating

4.5
Back To The Sea

Back To The Sea (2012)

Family

Full description
quality   dvdrip hd bd x264 fullhd h264

Back To The Sea (2012) DVDRip

Size 733.425 MB   9 seeders     Added 2013-01-15 00:20:37

Stream torrent
Starting‥ You need BitLord! Get it from 1BitLord.com
To download or stream you need BitLord. Visit them at BitLord.com
Back To The Sea (2012) DVDRip

Screens:
 
image
 
image
 
image

[General]
Format: AVI
Format/Info: Audio Video Interleave
File size: 699 MiB
Duration: 1h 37mn
Overall bit rate: 1 003 Kbps

[Video]
Format: xvid
Codec ID: xvid
Duration: 1h 37mn
Bit rate: 862 Kbps
Width: 720 pixels
Height: 304 pixels
Display aspect ratio: 2.35:1
Frame rate: 23.976 fps
Bits/(Pixel*Frame): 0.164
Stream size: 601 MiB (86%)

[Audio]
Format: MPEG Audio
Format version: Version 1
Format profile: Layer 3
Mode: Joint stereo
Mode extension: MS Stereo
Codec ID: 55
Codec ID/Hint: MP3
Duration: 1h 37mn
Bit rate mode: Constant
Bit rate: 128 Kbps
Channel(s): 2 channels
Sampling rate: 48.0 KHz
Compression mode: Lossy
Stream size: 89.3 MiB (13%)
Alignment: Aligned on interleaves
Interleave, duration: 24 ms (0.58 video frame)		
Back To The Sea (2012) DVDRip.avi 733.425 MB
Gathering some info...

Register and log in Isohunt and see no captcha anymore!

4000 symbols left
Hash B15EA6F6789A2B71FA3334E1F1E5577EFD4566D4

Related torrents for "Back To The Sea (2012) DVDRip"

Torrent search:

dvdrip 2012