imdb
rating

7.4
The English Patient

The English Patient (1996)

Drama, Romance, War

Full description

The.English.Patient.1996.720p.BluRay.x264-SiNNERS

Size 8.531 GB   27 seeders     Added 2013-01-15 06:58:16

Stream torrent
Starting‥ You need BitLord! Get it from 1BitLord.com
10
To download or stream you need BitLord. Visit them at BitLord.com
At the close of WWII, a young nurse tends to a badly-burned plane crash victim. His past is shown in flashbacks, revealing an involvement in a fateful love affair.
 http://www.imdb.com/title/tt0116209/

General
Unique ID                                : 172814113133603502046048661103170355252 (0x8202C99B8B6E5EA88733279F9D910034)
Complete name                            : The.English.Patient.1996.720p.BluRay.x264-SiNNERS.mkv
Format                                   : Matroska
Format version                           : Version 1
File size                                : 7.94 GiB
Duration                                 : 2h 41mn
Overall bit rate                         : 7 032 Kbps
Encoded date                             : UTC 2009-05-07 18:46:13
Writing application                      : mkvmerge v2.5.3 (Boogie) built on Mar  7 2009 15:00:41
Writing library                          : libebml v0.7.7 + libmatroska v0.8.1

Video
ID                                       : 1
Format                                   : AVC
Format/Info                              : Advanced Video Codec
Format profile                           : High@L3.1
Format settings, CABAC                   : Yes
Format settings, ReFrames                : 5 frames
Codec ID                                 : V_MPEG4/ISO/AVC
Duration                                 : 2h 41mn
Bit rate                                 : 5 520 Kbps
Width                                    : 1 280 pixels
Height                                   : 688 pixels
Display aspect ratio                     : 1.860
Frame rate                               : 23.976 fps
Color space                              : YUV
Chroma subsampling                       : 4:2:0
Bit depth                                : 8 bits
Scan type                                : Progressive
Bits/(Pixel*Frame)                       : 0.261
Stream size                              : 6.08 GiB (77%)
Writing library                          : x264 core 67 r1145 d2e1e1c
Encoding settings                        : cabac=1 / ref=5 / deblock=1:0:0 / analyse=0x3:0x113 / me=umh / subme=7 / psy_rd=1.0:0.0 / mixed_ref=1 / me_range=16 / chroma_me=1 / trellis=1 / 8x8dct=1 / cqm=0 / deadzone=21,11 / chroma_qp_offset=-2 / threads=6 / nr=0 / decimate=1 / mbaff=0 / bframes=3 / b_pyramid=1 / b_adapt=1 / b_bias=0 / direct=1 / wpredb=1 / keyint=250 / keyint_min=25 / scenecut=40 / rc=2pass / bitrate=5520 / ratetol=1.0 / qcomp=0.60 / qpmin=10 / qpmax=51 / qpstep=4 / cplxblur=20.0 / qblur=0.5 / ip_ratio=1.40 / pb_ratio=1.30 / aq=1:1.00
Language                                 : English
Default                                  : Yes
Forced                                   : No

Audio
ID                                       : 2
Format                                   : DTS
Format/Info                              : Digital Theater Systems
Codec ID                                 : A_DTS
Duration                                 : 2h 41mn
Bit rate mode                            : Constant
Bit rate                                 : 1 510 Kbps
Channel(s)                               : 6 channels
Channel positions                        : Front: L C R, Side: L R, LFE
Sampling rate                            : 48.0 KHz
Bit depth                                : 24 bits
Compression mode                         : Lossy
Stream size                              : 1.71 GiB (21%)
Default                                  : Yes
Forced                                   : No-------------------------------------Torrent downloaded from http://thepiratebay.se
The.English.Patient.1996.720p.BluRay.x264-SiNNERS.mkv 8.531 GB
Gathering some info...

Register and log in Isohunt and see no captcha anymore!

4000 symbols left
Hash 19E13EEBC7BA0204DF4C6F4CC0267E09A7D1265A

Related torrents for "The.English.Patient.1996.720p.BluRay.x264-SiNNERS"

Torrent search:

english 1996 x264 hd bd