imdb
rating

4.7
Hard Boiled Sweets

Hard Boiled Sweets (2012)

Crime

Full description
quality   dvdrip dvdr x264 bd

Hard Boiled Sweets 2012 DVDrip English Klam

Size 1.126 GB   3 seeders     Added 2013-01-15 17:53:24

Stream torrent
Starting‥ You need BitLord! Get it from BitLord.com
To download or stream you need BitLord. Visit them at BitLord.com
With: Paul Freeman, Ian Hart and Elizabeth Berrington

Ex-crimineel Johnny wordt gedwongen deel te nemen aan een overval waar hij eigenlijk niets mee te maken wil hebben. Maffiabaas ΓÇÿSlimmeΓÇÖ Eddie heeft een miljoen aan zwart geld verstopt in zijn huis, dat klaar ligt om gestolen te worden. Wat Johnny echter niet weet, is dat zeven andere zeer gevaarlijke criminelen ook hun zinnen hebben gezet op het geld van de gangster.

Mob Boss is used to getting whatever he wants; he runs Southend, gets all the best women including the gorgeous...
 
http://www.imdb.com/title/tt1711458	

------------------------ Dutch Friends ------------------------
---------------------------------------------------------------
- Bezoek ook eens mijn vrienden op:  http://www.Film-Test.nl --
----- voor mijn Nederlandse Sync. ondertitels ---- en meer ----
------- http://www.Film-Test.nl ---- Over Films en meer -------
---------------------------------------------------------------

General:

Complete name                    : Hard Boiled SweetsHard Boiled Sweets.avi
Format                           : AVI
Format/Info                      : Audio Video Interleave
File size                        : 1.05 GiB
Duration                         : 1h 24mn
Overall bit rate                 : 1 776 Kbps

Video:

Format                           : MPEG-4 Visual
Format profile                   : Simple@L3
Format settings, BVOP            : No
Format settings, QPel            : No
Format settings, GMC             : No warppoints
Format settings, Matrix          : Default (H.263)
Codec ID                         : XVID
Codec ID/Hint                    : XviD
Duration                         : 1h 24mn
Bit rate                         : 1 317 Kbps
Width                            : 720 pixels
Height                           : 304 pixels
Display aspect ratio             : 2.35:1
Frame rate                       : 25.000 fps
Color space                      : YUV
Chroma subsampling               : 4:2:0
Bit depth                        : 8 bits
Scan type                        : Progressive
Compression mode                 : Lossy
Bits/(Pixel*Frame)               : 0.241
Stream size                      : 796 MiB (74%)
Writing library                  : XviD 1.1.2 (UTC 2006-11-01)

Audio:

Format                           : AC-3
Format/Info                      : Audio Coding 3
Mode extension                   : CM (complete main)
Codec ID                         : 2000
Duration                         : 1h 24mn
Bit rate mode                    : Constant
Bit rate                         : 448 Kbps
Channel(s)                       : 6 channels
Channel positions                : Front: L C R, Side: L R, LFE
Sampling rate                    : 48.0 KHz
Bit depth                        : 16 bits
Compression mode                 : Lossy
Stream size                      : 271 MiB (25%)
Alignment                        : Aligned on interleaves
Interleave, duration             : 32 ms (0.80 video frame)
Interleave, preload duration     : 288 ms

.hond
Cover/Hard Boiled Sweets.jpg 644.939 KB
Cover/www.Film-Test.nl.JPG 29.467 KB
Hard Boiled Sweets.avi 1.125 GB
Gathering some info...

Register and log in Isohunt and see no captcha anymore!

4000 symbols left
Hash BB0C87F1047C66C923705DD3FF2DA80E03A8FF87

Related torrents for "Hard Boiled Sweets 2012 DVDrip English Klam"

Torrent search:

dvdrip english 2012