imdb
rating

6.7
In Time

In Time (2011)

Action, Science Fiction, Thriller

Full description
quality   fullhd dvdrip telesync x264

In Time [2011] BRRip x264 AAC-V3nom

Size 319.29 MB   24 seeders     Added 2013-01-15 17:53:33

Stream torrent
Starting‥ You need BitLord! Get it from BitLord.com
To download or stream you need BitLord. Visit them at BitLord.com
[img]image[/img]

[b][size=200][color=black]PLOT[/color][/size][/b]

[code]In a future where people stop aging at 25, but are engineered 
to live only one more year, having the means to buy your way out of 
the situation is a shot at immortal youth. Here, Will Salas finds himself 
accused of murder and on the run with a hostage - a connection that becomes 
an important part of the way against the system.[/code]

[b][size=200][color=black]IMDB[/color][/size][/b]

[code]http://www.imdb.com/title/tt1637688/[/code]

[b][size=200][color=black]MOVIE INFO[/color][/size][/b]

[code]In Time [2011] BRRip x264 AAC-V3nom

Format : MPEG-4
Format profile : Base Media / Version 2
Codec ID : mp42
File size : 302 MiB
Duration : 1h 49mn
Overall bit rate mode : Variable
Overall bit rate : 386 Kbps
Encoded date : UTC 2013-01-15 09:23:41
Tagged date : UTC 2013-01-15 10:06:03

Video
ID : 1
Format : AVC
Format/Info : Advanced Video Codec
Format profile : Main@L2.1
Format settings, CABAC : Yes
Format settings, ReFrames : 4 frames
Codec ID : avc1
Codec ID/Info : Advanced Video Coding
Duration : 1h 49mn
Bit rate mode : Variable
Bit rate : 284 Kbps
Width : 640 pixels
Height : 272 pixels
Display aspect ratio : 2.35:1
Frame rate mode : Variable
Frame rate : 23.976 fps
Minimum frame rate : 7.992 fps
Maximum frame rate : 23.981 fps
Color space : YUV
Chroma subsampling : 4:2:0
Bit depth : 8 bits
Scan type : Progressive
Bits/(Pixel*Frame) : 0.068
Stream size : 223 MiB (74%)
Writing library : x264 core 112

Audio
ID : 2
Format : AAC
Format/Info : Advanced Audio Codec
Format profile : LC
Codec ID : 40
Duration : 1h 49mn
Bit rate mode : Variable
Bit rate : 96.0 Kbps
Maximum bit rate : 170 Kbps
Channel(s) : 2 channels
Channel positions : Front: L R
Sampling rate : 48.0 KHz
Compression mode : Lossy
Delay relative to video : 167ms
Stream size : 75.0 MiB (25%)
Encoded date : UTC 2013-01-15 09:23:41
Tagged date : UTC 2013-01-15 10:05:57[/code]

[b][size=200][color=black]SOURCE[/color][/size][/b]

[code]In Time (2011) 720p BluRay x264 - 700MB - YIFY(Thanks)[/code]

[b][size=200][color=black]SCREENSHOTS[/color][/size][/b]

[img]image[/img]

[img]image[/img][img]image[/img]
In Time [2011] BRRip x264 AAC-V3nom.jpg 161.594 KB
In Time [2011] BRRip x264 AAC-V3nom.m4v 316.226 MB
sample.m4v 2.604 MB
Gathering some info...

Register and log in Isohunt and see no captcha anymore!

4000 symbols left
Hash C607E7C5B9E3C1889A014943FA678AD6566CE33B

Related torrents for "In Time [2011] BRRip x264 AAC-V3nom"

Torrent search:

x264 bd 2011