imdb
rating

7.6
Jeff Dunham: Controlled Chaos

Jeff Dunham: Controlled Chaos (2011)

Comedy

Full description
quality   dvdr x264 hdtv hd dvdrip bd

Jeff Dunham Controlled Chaos

Size 418.692 MB   0 seeders     Added 2013-01-15 20:57:01

Stream torrent
Starting‥ You need BitLord! Get it from BitLord.com
To download or stream you need BitLord. Visit them at BitLord.com
General
Complete name                    : Jeff Dunham Controlled Chaos 2011 HDTV [Handheld].mp4
Format                           : MPEG-4
Format profile                   : Base Media
Codec ID                         : isom
File size                        : 399 MiB
Duration                         : 1h 2mn
Overall bit rate mode            : Variable   
Overall bit rate                 : 893 Kbps
Writing application              : Lavf52.103.0

Video
ID                               : 1
Format                           : AVC
Format/Info                      : Advanced Video Codec
Format profile                   : Baseline@L1.3
Format settings, CABAC           : No
Format settings, ReFrames        : 1 frame
Codec ID                         : avc1
Codec ID/Info                    : Advanced Video Coding
Duration                         : 1h 2mn
Bit rate                         : 696 Kbps
Width                            : 584 pixels
Height                           : 320 pixels
Display aspect ratio             : 16:9
Original display aspect ratio    : 16:9
Frame rate mode                  : Constant
Frame rate                       : 29.000 fps
Color space                      : YUV
Chroma subsampling               : 4:2:0
Bit depth                        : 8 bits
Scan type                        : Progressive
Bits/(Pixel*Frame)               : 0.128
Stream size                      : 311 MiB (78%)

Audio
ID                               : 2
Format                           : AAC
Format/Info                      : Advanced Audio Codec
Format profile                   : LC
Codec ID                         : 40
Duration                         : 1h 2mn
Bit rate mode                    : Variable
Bit rate                         : 192 Kbps
Channel(s)                       : 2 channels
Channel positions                : Front: L R
Sampling rate                    : 48.0 KHz
Compression mode                 : Lossy
Stream size                      : 85.9 MiB (22%)
		
Jeff Dunham Controlled Chaos 2011 HDTV [Handheld].mp4 418.69 MB
Jeff Dunham Controlled Chaos 2011 HDTV [Handheld].nfo 2.045 KB
Gathering some info...

Register and log in Isohunt and see no captcha anymore!

4000 symbols left
Hash E5C05CCAFFAD79A64AF09BD5643768C69E47490F

Related torrents for "Jeff Dunham Controlled Chaos"

Torrent search:

2011