imdb
rating

4.6
Paranormal Activity 4

Paranormal Activity 4 (2012)

Horror

Full description
quality   dvdrip dvd screener bd

Paranormal Activity 4 [2012] [UNRATED] BRRip x264 AAC-V3nom Verified

Size 327.019 MB   0 seeders     Added 2013-01-15 21:02:45

Stream torrent
Starting‥ You need BitLord! Get it from 1BitLord.com
To download or stream you need BitLord. Visit them at BitLord.com
[img]image[/img]

[b][size=200][color=black]PLOT[/color][/size][/b]

[code]It has been five years since the disappearance of Katie and 
Hunter, and a suburban family witness strange events in their neighborhood 
when a woman and a mysterious child move in.[/code]

[b][size=200][color=black]IMDB[/color][/size][/b]

[code]http://www.imdb.com/title/tt2109184/[/code]

[b][size=200][color=black]MOVIE INFO[/color][/size][/b]

[code]Paranormal Activity 4 [2012] [UNRATED] BRRip x264 AAC-V3nom

Format                                   : MPEG-4
Format profile                           : Base Media / Version 2
Codec ID                                 : mp42
File size                                : 309 MiB
Duration                                 : 1h 36mn
Overall bit rate mode                    : Variable
Overall bit rate                         : 446 Kbps
Encoded date                             : UTC 2013-01-15 10:37:49
Tagged date                              : UTC 2013-01-15 11:06:26

Video
ID                                       : 1
Format                                   : AVC
Format/Info                              : Advanced Video Codec
Format profile                           : Main@L2.1
Format settings, CABAC                   : Yes
Format settings, ReFrames                : 4 frames
Codec ID                                 : avc1
Codec ID/Info                            : Advanced Video Coding
Duration                                 : 1h 36mn
Bit rate mode                            : Variable
Bit rate                                 : 348 Kbps
Width                                    : 624 pixels
Height                                   : 272 pixels
Display aspect ratio                     : 16:9
Original display aspect ratio            : 16:9
Frame rate mode                          : Variable
Frame rate                               : 23.976 fps
Minimum frame rate                       : 23.974 fps
Maximum frame rate                       : 48.754 fps
Color space                              : YUV
Chroma subsampling                       : 4:2:0
Bit depth                                : 8 bits
Scan type                                : Progressive
Bits/(Pixel*Frame)                       : 0.086
Stream size                              : 239 MiB (77%)
Writing library                          : x264 core 112

Audio
ID                                       : 2
Format                                   : AAC
Format/Info                              : Advanced Audio Codec
Format profile                           : LC
Codec ID                                 : 40
Duration                                 : 1h 36mn
Bit rate mode                            : Variable
Bit rate                                 : 96.0 Kbps
Maximum bit rate                         : 167 Kbps
Channel(s)                               : 2 channels
Channel positions                        : Front: L R
Sampling rate                            : 48.0 KHz
Compression mode                         : Lossy
Delay relative to video                  : 83ms
Stream size                              : 66.2 MiB (21%)
Encoded date                             : UTC 2013-01-15 10:37:49
Tagged date                              : UTC 2013-01-15 11:06:21[/code]

[b][size=200][color=black]SOURCE[/color][/size][/b]

[code]Paranormal.Activity.4.2012.UNRATED.BDRip.XviD-SPARKS(Thanks)[/code]

[b][size=200][color=black]SCREENSHOTS[/color][/size][/b]

[img]image[/img]

[img]image[/img][img]image[/img]		
Paranormal Activity 4 [2012] [UNRATED] BRRip x264 AAC-V3nom/Paranormal Activity 4 [2012] [UNRATED] BRRip x264 AAC-V3nom.jpg 161.822 KB
Paranormal Activity 4 [2012] [UNRATED] BRRip x264 AAC-V3nom/Paranormal Activity 4 [2012] [UNRATED] BRRip x264 AAC-V3nom.m4v 323.531 MB
Paranormal Activity 4 [2012] [UNRATED] BRRip x264 AAC-V3nom/sample.m4v 3.174 MB
Gathering some info...

Register and log in Isohunt and see no captcha anymore!

4000 symbols left
Hash cffb81397f8958dffea8b1e7888ea7f5ccec781b

Related torrents for "Paranormal Activity 4 [2012] [UNRATED] BRRip x264 AAC-V3nom"

Torrent search:

x264 2012 bd