Доктор Живаго (2006)

Доктор Живаго (2006) (2006)

Drama

Full description

Poultrygeist - Night of the chicken dead (2006) [XviD - English Mp3 - Sub Italian] Horror Splatter MIRCrew [TNT Village]

Size 731.806 MB   9 seeders     Added 2013-01-16 01:01:26

Stream torrent
Starting‥ You need BitLord! Get it from 1BitLord.com
To download or stream you need BitLord. Visit them at BitLord.com
Poultrygeist - Night of the chicken dead (2006) [XviD - English Mp3 - Sub Italian] Horror Splatter MIRCrew [TNT Village]



[color=red][IMG]image[/IMG]

*********************************************

[URL=http://www.imdb.it/title/tt0462485/][IMG]image[/IMG][/URL] 

[IMG]image[/IMG]


[IMG]image[/IMG]


Titolo originale 	Poultrygeist: Night of the Chicken Dead
Lingua originale 	inglese
Paese di produzione 	Stati Uniti
Anno 	2006
Durata 	103 min

Poultrygeist: Night of the Chicken Dead è un film del 2006, diretto da Lloyd Kaufman, prodotto dalla Troma. Si tratta di una parodia di Poltergeist - Demoniache presenze e di La notte dei 

morti viventi.

È stato presentato in anteprima mondiale al Toronto After Dark Film Festival 2006, mentre in Italia è stato presentato in anteprima nell'ottobre 2007, al Ravenna Nightmare Film Festival.

Il film, a basso costo, è stato realizzato con una spesa di 500.000$. È conosciuto anche con il titolo Poultrygeist, mentre il titolo di lavorazione era Poultrygeist: Attack of the Chicken 

Zombies!.

[IMG]image[/IMG]

Genere 	commedia horror, musical
Regia 	Lloyd Kaufman
Soggetto 	Lloyd Kaufman
Sceneggiatura 	Lloyd Kaufman, Daniel Bova, Gabriel Friedman
Produttore 	Lloyd Kaufman, Michael Herz, Gabriel Friedman, Andrew Deemer, Kiel Walker
Casa di produzione 	Troma, Poultry Productions LLC
Fotografia 	Brendan Flynt
Montaggio 	Gabriel Friedman
Effetti speciali 	Melissa McAnany, Ian Strandberg

[IMG]image[/IMG]

[IMG]image[/IMG]

[IMG]image[/IMG]

 Jason Yachanin: Arbie
 Kate Graham: Wendy
 Allyson Sereboff: Micki
 Robin Watkins: generale Lee Roby
 Joshua Olatunde: Denny
 Rose Ghavami: Humus
 Caleb Emerson: Carl Jr.
 Khalid Rivera: Paco Bell
 Ron Jeremy: Crazy Ron
 Lemmy Kilmister:
 Trey Parker:
 Matt Stone:
 Lloyd Kaufman: uomo misterioso

[IMG]image[/IMG]

[IMG]image[/IMG]

[IMG]image[/IMG]


[IMG]image[/IMG]

Arbie è un nerd che torna sul luogo del suo primo e unico incontro romantico, il cimitero indiano Ancient Tromahawk Tribe Indian Burial Ground di Tromaville. Arrivato sul luogo, scopre che 

il cimitero è stato abbattuto ed è stato sostituito da un fast food, l'American Chicken Bunker. Inoltre scopre che la sua fidanzata, Wendy si è trasformata da ragazza timida in una lesbica 

liberal che protesta contro le multinazionali statunitensi.

Dopo aver fatto un'ulteriore scoperta, vale a dire che Wendy si è fidanzata con la brutale Micki, Arbie si fa assumere nel fast food. Lì conosce i pittoreschi e stravaganti impiegati: il 

manager afroamericano Denny, la musulmana Humus, l'animalista Carl Jr., il messicano Paco Bell e un misterioso uomo sessantenne che lavora nel fast food da molti anni.

Tutti questi personaggi dovranno affrontare un orribile attacco di polli divenuti zombi dopo essere stati posseduti dagli spiriti degli indiani che riposavano nel cimitero abbattuto.….....

Storyline

When the American Chicken Bunker, a military-themed fried-chicken chain, builds a restaurant on the site of an ancient Indian burial ground, local protesters aren't the only ones crying 

fowl! The previous tenants, fueled by a supernatural force, take "possession" of the food and those who eat it, and the survivors discover that they must band together before they 

themselves become the other white meat! Film lovers have been starved for sustenance. The relentless diet of predictability and pretense Hollywood has been serving up just doesn't cut it. 

Poultrygeist is hearty food for thought. In Poultrygeist, Troma takes on the the fast-food industry-skewering the soulless restaurateurs-in the world's first horror-comedy film to feature 

zombie chickens, American Indians and a bit of singing and dancing! It's Poultrygeist!

[IMG]image[/IMG]

[IMG]image[/IMG]

[IMG]image[/IMG]


[IMG]image[/IMG]

[IMG]image[/IMG]

General
Complete name : C:\Usersobbyrs\Desktop\Poultrygeist - Night of the chicken dead (2006).avi
Format : AVI
Format/Info : Audio Video Interleave
File size : 698 MiB
Duration : 1h 38mn
Overall bit rate : 989 Kbps
Writing application : VirtualDubMod 1.5.10.2 (build 2542/release)
Writing library : VirtualDubMod build 2542/release

Video
ID : 0
Format : MPEG-4 Visual
Format profile : Advanced Simple@L5
Format settings, BVOP : Yes
Format settings, QPel : No
Format settings, GMC : No warppoints
Format settings, Matrix : Default (H.263)
Muxing mode : Packed bitstream
Codec ID : XVID
Codec ID/Hint : XviD
Duration : 1h 38mn
Bit rate : 841 Kbps
Width : 624 pixels
Height : 336 pixels
Display aspect ratio : 1.857
Frame rate : 25.000 fps
Color space : YUV
Chroma subsampling : 4:2:0
Bit depth : 8 bits
Scan type : Progressive
Bits/(Pixel*Frame) : 0.160
Stream size : 593 MiB (85%)
Writing library : XviD 1.1.2 (UTC 2006-11-01)

Audio
ID : 1
Format : MPEG Audio
Format version : Version 1
Format profile : Layer 3
Mode : Joint stereo
Mode extension : MS Stereo
Codec ID : 55
Codec ID/Hint : MP3
Duration : 1h 38mn
Bit rate mode : Variable
Bit rate : 135 Kbps
Nominal bit rate : 128 Kbps
Channel(s) : 2 channels
Sampling rate : 48.0 KHz
Stream size : 95.6 MiB (14%)
Alignment : Aligned on interleaves
Interleave, duration : 24 ms (0.60 video frame)
Interleave, preload duration : 484 ms
Writing library : LAME3.90.
Encoding settings : -m j -V 4 -q 2 -lowpass 17.6 --abr 128

[/color]
Poultrygeist - Night of the chicken dead (2006).avi 731.806 MB
Gathering some info...

Register and log in Isohunt and see no captcha anymore!

4000 symbols left
Hash AD1BFD8D0D7FE237F85EC76DABD7F71C22566089

Related torrents for "Poultrygeist - Night of the chicken dead (2006) [XviD - English Mp3 - Sub Italian] Horror Splatter MIRCrew [TNT Village]"

Torrent search:

italian english 2006