Astérix Et Obélix au service de sa majesté (2012) FRENCH DVDRip XviD - PublicHD

Size 739.898 MB   0 seeders     Added 2013-01-16 00:55:05

To download or stream you need BitLord. Visit them at BitLord.com
Astérix Et Obélix  au service de sa majesté (2012) FRENCH DVDRip XviD - PublicHD


STATS:

Video
ID                               : 0
Format                           : MPEG-4 Visual
Format profile                   : Advanced Simple@L5
Format settings, BVOP            : 2
Format settings, QPel            : No
Format settings, GMC             : No warppoints
Format settings, Matrix          : Default (MPEG)
Muxing mode                      : Packed bitstream
Codec ID                         : XVID
Codec ID/Hint                    : XviD
Duration                         : 1h 50mn
Bit rate                         : 986 Kbps
Width                            : 720 pixels
Height                           : 320 pixels
Display aspect ratio             : 2.25:1
Frame rate                       : 29.970 fps
Color space                      : YUV
Chroma subsampling               : 4:2:0
Bit depth                        : 8 bits
Scan type                        : Progressive
Compression mode                 : Lossy
Bits/(Pixel*Frame)               : 0.243
Stream size                      : 705 MiB (92%)
Writing library                  : XviD 64

Audio

Format                           : MPEG Audio
Format version                   : Version 1
Format profile                   : Layer 3
Mode                             : Joint stereo
Mode extension                   : MS Stereo
Codec ID                         : 55
Codec ID/Hint                    : MP3
Duration                         : 1h 50mn
Bit rate mode                    : Constant
Bit rate                         : 128 Kbps
Channel(s)                       : 2 channels
Sampling rate                    : 48.0 KHz
Compression mode                 : Lossy
Stream size                      : 52 MiB (7%)
Alignment                        : Split accross interleaves
Interleave, duration             : 33 ms (1.00 video frame)
Interleave, preload duration     : 500 ms
`
Astérix Et Obélix au service de sa majesté (2012) FRENCH DVDRip XviD - playXD/Astérix Et Obélix au service de sa majesté (2012) FRENCH DVDRip XviD - playXD.nfo 1.99 KB
Astérix Et Obélix au service de sa majesté (2012) FRENCH DVDRip XviD - playXD/Astérix Et Obélix au service de sa majesté (2012) FRENCH DVDRip XviD - playXD/Astérix Et Obélix au service de sa majesté (2012) FRENCH DVDRip XviD - playXD.rar 739.612 MB
Astérix Et Obélix au service de sa majesté (2012) FRENCH DVDRip XviD - playXD/cover.jpg 67.419 KB
Gathering some info...

Register and log in Isohunt and see no captcha anymore!

4000 symbols left
Hash 4fea537f2ea03806eb4e9402672d13c3e4547b99

Related torrents for "Astérix Et Obélix au service de sa majesté (2012) FRENCH DVDRip XviD - PublicHD"

Torrent search:

french 2012