imdb
rating

8.5
Django Unchained

Django Unchained (2012)

Drama, Western

Full description
quality   screener dvdrip hd bd x264

Django.Unchained.2012.DVD.Screener.Xvid-UnknOwN

Size 1.788 GB   0 seeders     Added 2013-01-16 07:43:55

Stream torrent
Starting‥ You need BitLord! Get it from BitLord.com
To download or stream you need BitLord. Visit them at BitLord.com
Encoded By .......:UnKnOwN                                                   
Runtime ..........:2:45                                                      
IMDb URL .........:[URL=http://http://www.imdb.com/title/tt1853728/]click here[/URL]                      
Language .........:English                                                   
File Size ........:1.66gb                                                    
Release Date ......... 2012                                                  
Source       ......... Late delivery from santa                              
File Type    ......... Single AVI                                            
PS3 Compatible ....... No one cares about your ps3                           
Genre        ......... Action   Drama   Western                                                 ³
                                                                                                                                                        
Video                                                                        
ID                               : 0                                        
Format                           : MPEG-4 Visual                            
Format profile                   : Advanced Simple@L5                       
Format settings, BVOP            : Yes                                      
Format settings, QPel            : No                                       
Format settings, GMC             : No warppoints                            
Format settings, Matrix          : Custom                                  
Codec ID                         : XVID                                     
Codec ID/Hint                    : XviD                                     
Duration                         : 2h 45mn                                  
Bit rate                         : 1640kbps                                 
Width                            : 720pixels                                
Height                           : 288pixels                                
Display aspect ratio             : 2:50                                     
Frame rate                       : 29.000fps                                
Color space                      : YUV                                       
Chroma subsampling               : 4:2:0                                    
Bit depth                        : 8 bits                                   
Scan type                        : Progressive                              
Bits/(Pixel*Frame)               : 0.234                                    
Stream size                      : 892 MiB (86%)                            
Writing library                  : XviD 1.2.1 (UTC 2008-12-04)              

Audio                                                                        
ID                               : 1                                         
Format                           : AC3                                      
Format/Info                      : MPEG                                      
Mode extension                   : CM (complete main)                        
Codec ID                         : 2000                                      
Duration                         : 2h 45mn                                   
Bit rate mode                    : Constant                                  
Bit rate                         : 192kbps                                   
Channel(s)                       : 2channels                                 
Channel positions                : Front: L C R, Side: L R, LFE              
Sampling rate                    : 48.0 KHz                                  
Bit depth                        : 16 bits                                   
Stream size                      : 302 MiB                                   
Alignment                        : Aligned on interleaves                    
Interleave, duration             : 42 ms (1.00 video frame)                  
Interleave, preload duration     : 512 ms                                    

                              RELEASE INFO                                    
           Blurred what needed to be blurred all ready to go                  
                                                                              
   Our last release for the year happy belated christmas and a Early          
           happy new year from UnKnOwN.See you all next year(:                

                             LOOKING FOR                                    
                       Nothing and Never will be                            
                                                                            
       Remember it\'s all about sharing not gaining internet fame             
                          protect yourselves                                 
                                                                             
                            EVERY FEMALE YOU KNOW                            
                        MORE GOODIES COMING REAL SOON                      
                           
Django.Unchained.2012.DVD.Screener.Xvid-UnknOwN/600full-django-unchained-poster.jpg 195.974 KB
Django.Unchained.2012.DVD.Screener.Xvid-UnknOwN/django-unchained-2012-movie.jpeg 85.663 KB
Django.Unchained.2012.DVD.Screener.Xvid-UnknOwN/django-unchained-quentin-tarantino.jpg 503.032 KB
Gathering some info...

Register and log in Isohunt and see no captcha anymore!

4000 symbols left
Hash 3429f7b6c81d5d4b9aa3a11c1c8899cc1927cdfe

Related torrents for "Django.Unchained.2012.DVD.Screener.Xvid-UnknOwN"

Torrent search:

screener 2012