imdb
rating

7.6
Collateral

Collateral (2004)

Crime, Drama, Thriller

Full description
quality   dvdrip h264 bd x264 hd dvdr fullhd

Collateral.2004.720p.BRRip.XviD.AC3-MAJESTiC

Size 3.458 GB   13 seeders     Added 2013-01-16 17:40:38

Stream torrent
Starting‥ You need BitLord! Get it from 1BitLord.com
To download or stream you need BitLord. Visit them at BitLord.com
[size=200]Collateral.2004.720p.BRRip.XviD.AC3-MAJESTiC[/size]



[b]Format : AVI
Format/Info : Audio Video Interleave
Format profile : OpenDML
File size : 3.17 GiB
Duration : 1h 59mn
Overall bit rate : 3 786 Kbps
Writing application : VirtualDubMod 1.5.10.2 (build 2540/release)
Writing library : VirtualDubMod build 2540/release

Video
ID : 0
Format : MPEG-4 Visual
Format profile : Advanced Simple@L5
Format settings, BVOP : 2
Format settings, QPel : No
Format settings, GMC : No warppoints
Format settings, Matrix : Default (H.263)
Muxing mode : Packed bitstream
Codec ID : XVID
Codec ID/Hint : XviD
Duration : 1h 59mn
Bit rate : 3 136 Kbps
Width : 1 280 pixels
Height : 528 pixels
Display aspect ratio : 2.40:1
Frame rate : 23.976 fps
Color space : YUV
Chroma subsampling : 4:2:0
Bit depth : 8 bits
Scan type : Progressive
Compression mode : Lossy
Bits/(Pixel*Frame) : 0.194
Stream size : 2.63 GiB (83%)
Writing library : XviD 1.2.1 (UTC 2008-12-04)

Audio
ID : 1
Format : AC-3
Format/Info : Audio Coding 3
Mode extension : CM (complete main)
Format settings, Endianness : Big
Codec ID : 2000
Duration : 1h 59mn
Bit rate mode : Constant
Bit rate : 640 Kbps
Channel(s) : 6 channels
Channel positions : Front: L C R, Side: L R, LFE
Sampling rate : 48.0 KHz
Bit depth : 16 bits
Compression mode : Lossy
Stream size : 549 MiB (17%)
Alignment : Split accross interleaves
Interleave, duration : 42 ms (1.00 video frame)
Interleave, preload duration : 500 ms[/b]
1.png 647.397 KB
arenabg.com.url 118 B
Collateral.2004.720P.BRRIP.XVID.AC3-MAJESTiC.avi 3.406 GB
Gathering some info...

Register and log in Isohunt and see no captcha anymore!

4000 symbols left
Hash 25F5CBEADFD402508925895D86D647C7B54DB788

Related torrents for "Collateral.2004.720p.BRRip.XviD.AC3-MAJESTiC"

Torrent search:

2004 hd bd