1992

1992 (2014)

Full description

Rebels of the Neon God (Tsai Ming-liang, 1992)

Size 1.591 GB   12 seeders     Added 2013-01-17 03:45:59

Stream torrent
Starting‥ You need BitLord! Get it from BitLord.com
To download or stream you need BitLord. Visit them at BitLord.com
Defying by his parents, Hsiao Kang drops out of the local crammer to head for the bright lights of downtown Taipei. He falls in with Ah Tze, a pretty hood and their relationships is a confused mixture of hero-worship and rivalry that soon leads to trouble.

General
Unique ID                                : 288785440440704812485402439121374470024 (0xD9420D7F5F0A18DFEA070EAB6D32DF88)
Complete name                            : Ch'ing shaonien na cha AKA Rebels of the Neon God (1992).mkv
Format                                   : Matroska
Format version                           : Version 2
File size                                : 1.48 GiB
Duration                                 : 1h 41mn
Overall bit rate                         : 2 081 Kbps
Encoded date                             : UTC 2012-03-17 23:17:24
Writing application                      : mkvmerge v5.4.0 ('Piper') built on Mar 10 2012 13:14:01
Writing library                          : libebml v1.2.2 + libmatroska v1.3.0

Video
ID                                       : 1
Format                                   : AVC
Format/Info                              : Advanced Video Codec
Format profile                           : High@L3.1
Format settings, CABAC                   : Yes
Format settings, ReFrames                : 9 frames
Muxing mode                              : Header stripping
Codec ID                                 : V_MPEG4/ISO/AVC
Duration                                 : 1h 41mn
Bit rate                                 : 1 847 Kbps
Width                                    : 712 pixels
Height                                   : 458 pixels
Display aspect ratio                     : 1.85:1
Original display aspect ratio            : 1.85:1
Frame rate mode                          : Constant
Frame rate                               : 23.976 fps
Color space                              : YUV
Chroma subsampling                       : 4:2:0
Bit depth                                : 8 bits
Scan type                                : Progressive
Bits/(Pixel*Frame)                       : 0.236
Stream size                              : 1.32 GiB (89%)
Writing library                          : x264 core 120
Encoding settings                        : cabac=1 / ref=9 / deblock=1:-2:-2 / analyse=0x3:0x133 / me=umh / subme=9 / psy=1 / psy_rd=1.00:0.00 / mixed_ref=1 / me_range=24 / chroma_me=1 / trellis=2 / 8x8dct=1 / cqm=0 / deadzone=21,11 / fast_pskip=0 / chroma_qp_offset=-2 / threads=6 / sliced_threads=0 / nr=0 / decimate=1 / interlaced=0 / bluray_compat=0 / constrained_intra=0 / bframes=6 / b_pyramid=2 / b_adapt=2 / b_bias=0 / direct=3 / weightb=1 / open_gop=0 / weightp=2 / keyint=240 / keyint_min=24 / scenecut=40 / intra_refresh=0 / rc_lookahead=50 / rc=crf / mbtree=1 / crf=18.0 / qcomp=0.60 / qpmin=3 / qpmax=69 / qpstep=4 / ip_ratio=1.40 / aq=1:1.20
Language                                 : English
Default                                  : Yes
Forced                                   : No
Color primaries                          : BT.601 NTSC
Transfer characteristics                 : BT.709
Matrix coefficients                      : BT.601

Audio
ID                                       : 2
Format                                   : AC-3
Format/Info                              : Audio Coding 3
Mode extension                           : CM (complete main)
Format settings, Endianness              : Big
Muxing mode                              : Header stripping
Codec ID                                 : A_AC3
Duration                                 : 1h 41mn
Bit rate mode                            : Constant
Bit rate                                 : 192 Kbps
Channel(s)                               : 2 channels
Channel positions                        : Front: L R
Sampling rate                            : 48.0 KHz
Bit depth                                : 16 bits
Compression mode                         : Lossy
Stream size                              : 140 MiB (9%)
Language                                 : mdr
Default                                  : Yes
Forced                                   : No

Text
ID                                       : 3
Format                                   : UTF-8
Codec ID                                 : S_TEXT/UTF8
Codec ID/Info                            : UTF-8 Plain Text
Language                                 : English
Default                                  : Yes
Forced                                   : No		
Ch'ing shaonien na cha AKA Rebels of the Neon God (1992).mkv 1.591 GB
Gathering some info...

Register and log in Isohunt and see no captcha anymore!

4000 symbols left
Hash a34e27f21b0ce65c0c1e163c2a6e6f39c5c2d9da

Related torrents for "Rebels of the Neon God (Tsai Ming-liang, 1992)"

Torrent search:

1992