imdb
rating

6.4
Struck by Lightning

Struck by Lightning (2012)

Comedy, Drama

Full description

Struck by Lightning 2012 DVDRip XviD-VoMiT

Size 734.95 MB   0 seeders     Added 2013-01-17 20:19:37

Stream torrent
Starting‥ You need BitLord! Get it from 1BitLord.com
To download or stream you need BitLord. Visit them at BitLord.com
\r\n\r\n\r\n\r\n\r\nVideo\r\nID : 0\r\nFormat : MPEG-4 Visual\r\nFormat profile : Advanced Simple@L5\r\nFormat settings, BVOP : 1\r\nFormat settings, QPel : No\r\nFormat settings, GMC : No warppoints\r\nFormat settings, Matrix : Default (H.263)\r\nCodec ID : XVID\r\nCodec ID/Hint : XviD\r\nDuration : 1h 28mn\r\nBit rate : 1 500 Kbps\r\nWidth : 640 pixels\r\nHeight : 360 pixels\r\nDisplay aspect ratio : 16:9\r\nFrame rate : 29.970 fps\r\nColor space : YUV\r\nChroma subsampling : 4:2:0\r\nBit depth : 8 bits\r\nScan type : Progressive\r\nCompression mode : Lossy\r\nBits/(Pixel*Frame) : 0.217\r\nStream size : 578 MiB (77%)\r\nWriting library : XviD 1.2.1 (UTC 2008-12-04)\r\n\r\nAudio\r\nID : 1\r\nFormat : AC-3\r\nFormat/Info : Audio Coding 3\r\nMode extension : CM (complete main)\r\nCodec ID : 2000\r\nDuration : 1h 28mn\r\nBit rate mode : Constant\r\nBit rate : 448 Kbps\r\nChannel(s) : 6 channels\r\nChannel positions : Front: L C R, Side: L R, LFE\r\nSampling rate : 48.0 KHz\r\nBit depth : 16 bits\r\nCompression mode : Lossy\r\nStream size : 183 MiB (23%)\r\nAlignment : Aligned on interleaves\r\nInterleave, duration : 33 ms (1.00 video frame)\r\nInterleave, preload duration : 512 ms\r\n		
Struck by Lightning.2012.DVDRip.XviD-VoMiT/Info.nfo 5.215 KB
Struck by Lightning.2012.DVDRip.XviD-VoMiT/READ this before playing the Video.txt 5.215 KB
Struck by Lightning.2012.DVDRip.XviD-VoMiT/Struck by Lightning.2012.DVDRip.XviD-VoMiT.wmv 734.789 MB
Gathering some info...

Register and log in Isohunt and see no captcha anymore!

4000 symbols left
Hash bdc940f9475378308e5b6a192239b44bc42e9a44

Related torrents for "Struck by Lightning 2012 DVDRip XviD-VoMiT"

Torrent search:

dvdrip 2012