imdb
rating

6.2
Broken City

Broken City (2013)

Crime, Drama, Thriller

Full description

Broken City (2013) DVDSCR x264 AAC-FooKaS

Size 1.201 GB   0 seeders     Added 2013-01-18 00:17:01

Stream torrent
Starting‥ You need BitLord! Get it from BitLord.com
To download or stream you need BitLord. Visit them at BitLord.com
Broken City (2013) DVDSCR x264 AAC-FooKaS


Video
ID : 0
Format : MPEG-4 Visual
Format profile : Advanced Simple@L5
Format settings, BVOP : 2
Format settings, QPel : No
Format settings, GMC : No warppoints
Format settings, Matrix : Default (H.263)
Muxing mode : Packed bitstream
Codec ID : XVID
Codec ID/Hint : XviD
Duration : 1h 36mn
Bit rate : 1 573 Kbps
Width : 720 pixels
Height : 304 pixels
Display aspect ratio : 2.35:1
Frame rate : 23.976 fps
Color space : YUV
Chroma subsampling : 4:2:0
Bit depth : 8 bits
Scan type : Progressive
Compression mode : Lossy
Bits/(Pixel*Frame) : 0.300
Stream size : 1.06 GiB (77%)
Writing library : XviD 64

Audio
ID : 1
Format : AC-3
Format/Info : Audio Coding 3
Mode extension : CM (complete main)
Format settings, Endianness : Big
Codec ID : 2000
Duration : 1h 36mn
Bit rate mode : Constant
Bit rate : 448 Kbps
Channel(s) : 6 channels
Channel positions : Front: L C R, Side: L R, LFE
Sampling rate : 48.0 KHz
Bit depth : 16 bits
Compression mode : Lossy
Stream size : 309 MiB (22%)
Alignment : Aligned on interleaves
Interleave, duration : 42 ms (1.00 video frame)
Broken City (2013) DVDSCR x264 AAC-FooKaS/Broken City (2013) DVDSCR x264 AAC-FooKaS.avi 1.199 GB
Broken City (2013) DVDSCR x264 AAC-FooKaS/extrainfoplain.png 51.713 KB
Broken City (2013) DVDSCR x264 AAC-FooKaS/ExtraTorrentRG.mp4 1.515 MB
Gathering some info...

Register and log in Isohunt and see no captcha anymore!

4000 symbols left
Hash 66ab37d5775ad0f0a7c92a39e52fe225681261aa

Related torrents for "Broken City (2013) DVDSCR x264 AAC-FooKaS"

Torrent search:

screener x264 2013