imdb
rating

6.4
The Last Stand

The Last Stand (2013)

Action, Crime, Thriller

Full description
quality   dvdrip bd dvdr hd telesync

The Last Stand (2013) PAL DD5.1 NL Subs DVDR-NLU002

Size 1.215 GB   0 seeders     Added 2013-01-18 01:42:16

Stream torrent
Starting‥ You need BitLord! Get it from 1BitLord.com
To download or stream you need BitLord. Visit them at BitLord.com
The Last Stand (2013) PAL DD5.1 NL Subs DVDR-NLU002


Video
ID : 0
Format : MPEG-4 Visual
Format profile : Advanced Simple@L5
Format settings, BVOP : 2
Format settings, QPel : No
Format settings, GMC : No warppoints
Format settings, Matrix : Default (H.263)
Muxing mode : Packed bitstream
Codec ID : XVID
Codec ID/Hint : XviD
Duration : 1h 36mn
Bit rate : 1 573 Kbps
Width : 720 pixels
Height : 304 pixels
Display aspect ratio : 2.35:1
Frame rate : 23.976 fps
Color space : YUV
Chroma subsampling : 4:2:0
Bit depth : 8 bits
Scan type : Progressive
Compression mode : Lossy
Bits/(Pixel*Frame) : 0.300
Stream size : 1.06 GiB (77%)
Writing library : XviD 64

Audio
ID : 1
Format : AC-3
Format/Info : Audio Coding 3
Mode extension : CM (complete main)
Format settings, Endianness : Big
Codec ID : 2000
Duration : 1h 36mn
Bit rate mode : Constant
Bit rate : 448 Kbps
Channel(s) : 6 channels
Channel positions : Front: L C R, Side: L R, LFE
Sampling rate : 48.0 KHz
Bit depth : 16 bits
Compression mode : Lossy
Stream size : 309 MiB (22%)
Alignment : Aligned on interleaves
Interleave, duration : 42 ms (1.00 video frame)
The Last Stand (2013) PAL DD5.1 NL Subs DVDR-NLU002/extrainfoplain.png 51.713 KB
The Last Stand (2013) PAL DD5.1 NL Subs DVDR-NLU002/ExtraTorrentRG.mp4 1.515 MB
The Last Stand (2013) PAL DD5.1 NL Subs DVDR-NLU002/MOVIE.nfo 4.858 KB
Gathering some info...

Register and log in Isohunt and see no captcha anymore!

4000 symbols left
Hash fbbef2ebecb12a8b8918b51e37d12374d9de999e

Related torrents for "The Last Stand (2013) PAL DD5.1 NL Subs DVDR-NLU002"

Torrent search:

subs dvdr 2013