Taylor Swift - Just For You 2012 WEB-DLRip 720p x264 AAC [VX] [P2PDL]

Size 334.918 MB   8 seeders     Added 2013-01-18 11:40:38

Stream torrent
Starting‥ You need BitLord! Get it from BitLord.com
To download or stream you need BitLord. Visit them at BitLord.com
[img]image[/img]


[b]Taylor Swift - Just For You 2012 WEB-DLRip 720p x264 AAC [VX] [P2PDL][/b]

[code]Known for her catchy lyrics and heartwarming smile, Taylor Swift has exploded on the music scene, 
breaking all boundaries between pop and country genres. But Swift wasn't always a global superstar. 
Growing up on a Christmas tree farm in Pennsylvania, she was a long way from the life she leads now—complete with sold-out tours,
hit songs and high-profile romances. Learn how her songwriting helped her cope with her teenage troubles and get all the details on her past loves 
including Joe Jonas, Jake Gyllenhaal and John Mayer. Watch as Swift explores her musical talents and pens some of 
the decade's most popular albums in this up-close-and-personal look at America s sweetheart.[/code]				

http://www.amazon.com/Taylor-Swift-Just-You/dp/B0064WDX16


[code]General
Complete name : Taylor Swift - Just For You 2012 WEB-DLRip 720p x264 AAC [VX] [P2PDL].mp4
Format : MPEG-4
Format profile : Base Media / Version 2
Codec ID : mp42
File size : 313 MiB
Duration : 59mn 7s
Overall bit rate mode : Variable

Source : 1080p WEB-DL AAC2.0 H.264-TrollHD (Thanks)

Video
ID : 1
Format : AVC
Format/Info : Advanced Video Codec
Width : 1 280 pixels
Height : 720 pixels
Display aspect ratio : 16:9
Frame rate mode : Constant
Frame rate : 25.000 fps
Color space : YUV
Chroma subsampling : 4:2:0
Bit depth : 8 bits
Scan type : Progressive
Bits/(Pixel*Frame) : 0.028
Stream size : 271 MiB (86%)

Audio
ID : 2
Format : AAC
Format/Info : Advanced Audio Codec
Channel(s) : 2 channels
Channel positions : Front: L R
Sampling rate : 48.0 KHz
Stream size : 40.6 MiB (13%)
Language : English

Subtitle : N/a[/code]


Screens:

[img]image[/img]
[img]image[/img]
[img]image[/img]
[img]image[/img]
[img]image[/img]

Thumbs:

[img]image[/img]

----------------------------------------------------------------------------------------------------


Check Sample to be sure. Recommended to use latest version of VLC player. 
Install K-Lite Codec Pack or shark007 codecs in case of any kind of problem in playback (For non-VLC Media Player users). 
Alternatively, install Core AVC codecs, the fastest decoder that there is coupled with Community Center Codec Pack and play
on Windows Media Player Classic. Check sample to be sure.

Greets to: VYTO, a2zRG, Stumpie1971, Sheychi, Neon, 
Suzitastik, MarGe, Ash968, Tifon, TorDigger, StylishSaLh, Caveman and 
staff members at ExtraTorrent, TPB, H33T, KAT, 1337x, PublicHD, Ahashare, TorrentMafia, 
Limetorrents, BTScene, P2PDL, and all others.

Encoder Notes: Looking For Early Access To Anything You Can Provide DVDScr, R5, DVDR, BluRay, Direct
Audio, Early Music Releases, Seedboxes, Dedicated Servers anything u can provide, Advance / Promo CDs/
DVDs. If You Got anything to offer contact me at "prg@hush.com".

[img]image[/img]

[URL=http://www.facebook.com/p2pdl][IMG]image[/IMG][/URL]
Cover, Screens, Sample/1.jpg 108.188 KB
Cover, Screens, Sample/2.jpg 112.993 KB
Cover, Screens, Sample/3.jpg 85.66 KB
Gathering some info...

Register and log in Isohunt and see no captcha anymore!

4000 symbols left
Hash 571C5DCD9F52C2F747741A82F7A50D8FEF7AF19A