imdb
rating

7.5
My Haunted House

My Haunted House (2013)

Horror

Full description

A Haunted House 2013 (Hindi) 720p HD

Size 1.253 GB   0 seeders     Added 2013-01-18 19:49:00

Stream torrent
Starting‥ You need BitLord! Get it from BitLord.com
To download or stream you need BitLord. Visit them at BitLord.com
Wrath of the Titans 2012 Hindi DVDRip@Mastitorrents\r\n\r\nFormat                           : AVI\r\nFormat/Info                      : Audio Video Interleave\r\nFormat profile                   : OpenDML\r\nFile size                        : 1160 MiB\r\nDuration                         : 1h 49mn\r\nOverall bit rate                 : 1 714 Kbps\r\nWriting application              : VirtualDubMod 1.5.10.2 (build 2542/release)\r\nWriting library                  : VirtualDubMod build 2542/release\r\nOriginal source form             : MAX TORRENTZ\r\n\r\nVideo\r\nID                               : 0\r\nFormat                           : MPEG-4 Visual\r\nFormat profile                   : AdvancedSimple@L5\r\nFormat settings, BVOP            : Yes\r\nFormat settings, QPel            : No\r\nFormat settings, GMC             : No warppoints\r\nFormat settings, Matrix          : Default (H.263)\r\nCodec ID                         : XVID\r\nCodec ID/Hint                    : XviD\r\nDuration                         : 1h 49mn\r\nBit rate                         : 1 325 Kbps\r\nWidth                            : 640 pixels\r\nHeight                           : 272 pixels\r\nDisplay aspect ratio             : 2.35:1\r\nFrame rate                       : 23.976 fps\r\nResolution                       : 24 bits\r\nColorimetry                      : 4:2:0\r\nScan type                        : Progressive\r\nBits/(Pixel*Frame)               : 0.318\r\nStream size                      : 1160 MiB (88%)\r\n\r\nAudio\r\nID                               : 1\r\nFormat                           : AC-3\r\nFormat/Info                      : Audio Coding 3\r\nCodec ID                         : 2000\r\nDuration                         : 1h 49mn\r\nBit rate mode                    : Constant\r\nBit rate                         : 384 Kbps\r\nChannel(s)                       : 6 channels\r\nChannel positions                : Front: L C R, Surround: L R, LFE\r\nSampling rate                    : 48.0 KHz\r\nStream size                      : 147 MiB (22%)\r\nAlignment                        : Aligned on interleaves\r\nInterleave, duration             : 64 ms (1.54 video frames)\r\nInterleave, preload duration     : 192 ms\r\n\r\n\r\nhttp://www.imdb.com/title/tt2243537/\r\n\r\n\r\nHow To Get Your Maxspeed (uTorrent)\r\n\r\nTorrent Client - Preferences - Bandwidth - Number of connections - Set aprox. 500 for each Torrent Client - Preferences - BiTorrent - Protocol Encryption - Forced Bandwidth Allocation - High (Set download/upload limit - Unlimited) Stop Other Active Torrents - Start downloading and wait for connections. Enjoy and Seed for at least 1:1 ratio. Don\'t forget to say thanks/leave reviews.Before downloading you should check/google search sample \"release name\"\"sample\".Greets to all actual/future p2p/scene QUALITY groups and affiliate websites.Don\'t trust IMDb robot or bad ratings,always watch some trailers first. Ignore stupid comments/fake/mislabeled/no-DVDrips/CAM/TS/RAR uploads. Please spread this release/torrent to your friends/forums/etc. If you need translation subs visit some subtitles sites. Report if you see online streaming or other spam links. Recommended movie player VLC PLAYER.
A Haunted House 2013 (Hindi) 720p HD/A Haunted House 2013 (Hindi) 720p HD.avi 1.253 GB
A Haunted House 2013 (Hindi) 720p HD/HDRelease.nfo.nfo 1.713 KB
A Haunted House 2013 (Hindi) 720p HD/Torrent downloaded from h33t.com.txt 32 B
Gathering some info...

Register and log in Isohunt and see no captcha anymore!

4000 symbols left
Hash 81242169cf950a0d48f676928fc0fe2d7c0999cf

Related torrents for "A Haunted House 2013 (Hindi) 720p HD"

Torrent search:

hd hindi 2013