imdb
rating

7.6
Haven

Haven (2010)

Drama, Fantasy

Full description

Haven S03E13 HDTV Xvid-MrX

Size 392.954 MB   1 seeders     Added 2013-01-18 21:40:32

Stream torrent
Starting‥ You need BitLord! Get it from BitLord.com
To download or stream you need BitLord. Visit them at BitLord.com
_____       ____  ___
  /     ______   /  /
 /   /  _  __      /
/    Y      | /     
____|__  /__| /___/  
        /           _/


Haven.S03E13.HDTV.Xvid-MrX 
http://www.syfy.com/haven/



General
Complete name                            : Haven.S03E13.HDTV.Xvid-MrX.avi
Format                                   : AVI
Format/Info                              : Audio Video Interleave
File size                                : 374 MiB
Duration                                 : 42mn 34s
Overall bit rate mode                    : Variable
Overall bit rate                         : 1 228 Kbps

Video
ID                                       : 0
Format                                   : MPEG-4 Visual
Format profile                           : Advanced Simple@L5
Format settings, BVOP                    : 1
Format settings, QPel                    : No
Format settings, GMC                     : No warppoints
Format settings, Matrix                  : Default (H.263)
Muxing mode                              : Packed bitstream
Codec ID                                 : XVID
Codec ID/Hint                            : XviD
Duration                                 : 42mn 34s
Bit rate                                 : 1 063 Kbps
Width                                    : 640 pixels
Height                                   : 352 pixels
Display aspect ratio                     : 16:9
Frame rate                               : 23.976 fps
Color space                              : YUV
Chroma subsampling                       : 4:2:0
Bit depth                                : 8 bits
Scan type                                : Progressive
Compression mode                         : Lossy
Bits/(Pixel*Frame)                       : 0.197
Stream size                              : 324 MiB (87%)
Writing library                          : XviD 1.2.1 (UTC 2008-12-04)

Audio
ID                                       : 1
Format                                   : MPEG Audio
Format version                           : Version 1
Format profile                           : Layer 3
Codec ID                                 : 55
Codec ID/Hint                            : MP3
Duration                                 : 42mn 34s
Bit rate mode                            : Variable
Bit rate                                 : 153 Kbps
Minimum bit rate                         : 32.0 Kbps
Channel(s)                               : 2 channels
Sampling rate                            : 48.0 KHz
Compression mode                         : Lossy
Stream size                              : 46.5 MiB (12%)
Alignment                                : Aligned on interleaves
Interleave, duration                     : 24 ms (0.58 video frame)
Interleave, preload duration             : 191 ms
Title                                    : Haven.S03E13
Writing library                          : LAME3.99r
Encoding settings                        : -m s -V 4 -q 0 -lowpass 17.5 --vbr-new -b 32
Haven.S03E13.HDTV.Xvid-MrX.avi 392.163 MB
Haven.S03E13.HDTV.Xvid-MrX.nfo 3.061 KB
Haven.S03E13.HDTV.Xvid-MrX.png 788.262 KB
Gathering some info...

Register and log in Isohunt and see no captcha anymore!

4000 symbols left
Hash 1698037E427BD1E5DE5E44EF26C23B2E16EA8F0B

Related torrents for "Haven S03E13 HDTV Xvid-MrX"

Torrent search:

season 03 hdtv episode 13