A$AP Rocky ft. Drake, 2 Chainz & Kendrick Lamar - Fucking Problems (Explicit) 1080p [Sbyky]

Size 152.503 MB   114 seeders     Added 2013-01-18 22:40:48

Stream torrent
Starting‚Ä• You need BitLord! Get it from BitLord.com
10
To download or stream you need BitLord. Visit them at BitLord.com
 image

General
Complete name                            : A$AP Rocky ft. Drake, 2 Chainz & Kendrick Lamar - Fucking Problems (Explicit) 1080p [Sbyky].mp4
Format                                   : MPEG-4
Format profile                           : Base Media / Version 2
Codec ID                                 : mp42
File size                                : 145 MiB
Duration                                 : 3mn 52s
Overall bit rate mode                    : Variable
Overall bit rate                         : 5 247 Kbps
Encoded date                             : UTC 2012-12-03 08:55:53
Tagged date                              : UTC 2012-12-03 08:55:53
gsst                                     : 0
gstd                                     : 232663
gssd                                     : B4A7DAA02HH1358198610481064
gshh                                     :

Video
ID                                       : 1
Format                                   : AVC
Format/Info                              : Advanced Video Codec
Format profile                           : High@L4.0
Format settings, CABAC                   : Yes
Format settings, ReFrames                : 1 frame
Codec ID                                 : avc1
Codec ID/Info                            : Advanced Video Coding
Duration                                 : 3mn 52s
Bit rate                                 : 5 052 Kbps
Maximum bit rate                         : 10.5 Mbps
Width                                    : 1 920 pixels
Height                                   : 1 080 pixels
Display aspect ratio                     : 16:9
Frame rate mode                          : Constant
Frame rate                               : 23.976 fps
Color space                              : YUV
Chroma subsampling                       : 4:2:0
Bit depth                                : 8 bits
Scan type                                : Progressive
Bits/(Pixel*Frame)                       : 0.102
Stream size                              : 140 MiB (96%)
Tagged date                              : UTC 2012-12-03 08:55:53

Audio
ID                                       : 2
Format                                   : AAC
Format/Info                              : Advanced Audio Codec
Format profile                           : LC
Codec ID                                 : 40
Duration                                 : 3mn 52s
Bit rate mode                            : Variable
Bit rate                                 : 192 Kbps
Maximum bit rate                         : 203 Kbps
Channel(s)                               : 2 channels
Channel positions                        : Front: L R
Sampling rate                            : 44.1 KHz
Compression mode                         : Lossy
Stream size                              : 5.32 MiB (4%)
Title                                    : IsoMedia File Produced by Google, 5-11-2011
Encoded date                             : UTC 2012-12-03 08:55:53
Tagged date                              : UTC 2012-12-03 08:55:53

Shared By Sbyky 
image		
A$AP Rocky ft. Drake, 2 Chainz & Kendrick Lamar - Fucking Problems (Explicit) 1080p [Sbyky].mp4 152.503 MB
Gathering some info...

Register and log in Isohunt and see no captcha anymore!

4000 symbols left
Hash 0B4BF5EB008B8D84553856DD28B48C9BF9545F85