Cercasi Amore Per La Fine Del Mondo iTALiAN MD BDRip XviD-BmA avi

Size 733.702 MB   0 seeders     Added 2013-01-18 22:43:04

Stream torrent
Starting‥ You need BitLord! Get it from BitLord.com
To download or stream you need BitLord. Visit them at BitLord.com
Complete name : D:\\Processing\\ Cercasi.Amore.Per.La.Fine.Del.Mondo.iTALiAN.MD.BDRip.XviD-BmA.avi\r\nFormat : AVI\r\nFormat/Info : Audio Video Interleave\r\nFile size : 700 Mb\r\nDuration : 1h 41mn\r\nOverall bit rate : 2 257 Kbps\r\nWriting library : VirtualDub build 0/release\r\n\r\nCRITICA\r\n\r\n\r\nPer esordire dietro la macchina da presa, la sceneggiatrice Lorene Scafaria sceglie di raccontare la fine del mondo in maniera buffa e irriverente soffermandosi sulle decisioni estreme di un\'umanità confusa e spiazzata. Poi cambia idea e si lascia trascinare dai suoi protagonisti in una storia d\'amore bella e romantica che determina un interessante cambiamento di tono. \r\ninfo_film\r\nUSCITA CINEMA: 17/01/2013\r\nGENERE: Commedia, Drammatico, Romantico\r\nREGIA: Lorene Scafaria\r\nSCENEGGIATURA: Lorene Scafaria\r\nATTORI:\r\nSteve Carell, Keira Knightley, Connie Britton, Melanie Lynskey, Adam Brody, T.J. Miller, Patton Oswalt, Gillian Jacobs, Derek Luke, Melinda Dillon\r\n\r\nVideo\r\nID : 0\r\nFormat : MPEG-4 Visual\r\nFormat profile : Simple@L3\r\nFormat settings, BVOP : No\r\nFormat settings, QPel : No\r\nFormat settings, GMC : No warppoints\r\nFormat settings, Matrix : Custom\r\nCodec ID : XVID\r\nCodec ID/Hint : XviD\r\nDuration : 1h 26mn\r\nBit rate : 2 116 Kbps\r\nWidth : 720 pixels\r\nHeight : 400 pixels\r\nDisplay aspect ratio : 16:9\r\nFrame rate : 23.976 fps\r\nColor space : YUV\r\nChroma subsampling : 4:2:0\r\nBit depth : 8 bits\r\nScan type : Progressive\r\nCompression mode : Lossy\r\nBits/(Pixel*Frame) : 0.306\r\nStream size : 1.29 GiB (94%)\r\nWriting library : XviD 1.0.1 (UTC 2004-06-05)\r\n\r\nAudio\r\nID : 1\r\nFormat : MPEG Audio\r\nFormat version : Version 1\r\nFormat profile : Layer 3\r\nMode : Joint stereo\r\nMode extension : MS Stereo\r\nCodec ID : 55\r\nCodec ID/Hint : MP3\r\nDuration : 1h 41mn\r\nBit rate mode : Constant\r\nBit rate : 128 Kbps\r\nChannel(s) : 2 channels\r\nSampling rate : 48.0 KHz\r\nCompression mode : Lossy\r\nStream size : 79.6 MiB (6%)\r\nAlignment : Aligned on interleaves\r\nInterleave, duration : 24 ms (0.58 video frame)\r\nInterleave, preload duration : 480 ms
Cercasi.Amore.Per.La.Fine.Del.Mondo.iTALiAN.MD.BDRip.XviD-BmA.avi 733.702 MB
Gathering some info...

Register and log in Isohunt and see no captcha anymore!

4000 symbols left
Hash 452f45ecc2bb8bd3a125deff2a5b8a6a34c427a5

Related torrents for "Cercasi Amore Per La Fine Del Mondo iTALiAN MD BDRip XviD-BmA avi"

Torrent search:

italian bd