imdb
rating

8.0
Life of Pi

Life of Pi (2012)

Action, Adventure, Drama

Full description
quality   dvdrip dvd x264 hd bd fullhd

Life of Pi 2012 DVDSCR m4v

Size 1.337 GB   0 seeders     Added 2013-01-19 04:35:43

Stream torrent
Starting‥ You need BitLord! Get it from 1BitLord.com
To download or stream you need BitLord. Visit them at BitLord.com
This is my first torrent uploaded ever on this so please let me know if i did everything correctly and anything i should do to make it better. Hope you guys enjoy this upload.


General 
Complete name : Life of Pi 2012 DVDSCR.m4v 
Format : MPEG-4 
Format profile : Base Media / Version 2 
Codec ID : mp42 
File size : 1.25 GiB 
Duration : 2h 6mn 
Overall bit rate mode : Variable 
Overall bit rate : 1 405 Kbps 
Encoded date : UTC 2012-12-28 07:42:54 
Tagged date : UTC 2012-12-28 08:06:09 
Writing application : HandBrake 0.9.8 2012071800 

Video 
ID : 1 
Format : AVC 
Format/Info : Advanced Video Codec 
Format profile : Main@L3.0 
Format settings, CABAC : Yes 
Format settings, ReFrames : 4 frames 
Codec ID : avc1 
Codec ID/Info : Advanced Video Coding 
Duration : 2h 6mn 
Bit rate mode : Variable 
Bit rate : 1 234 Kbps 
Width : 720 pixels 
Height : 400 pixels 
Display aspect ratio : 16:9 
Frame rate mode : Variable 
Frame rate : 23.976 fps 
Minimum frame rate : 19.965 fps 
Maximum frame rate : 29.970 fps 
Color space : YUV 
Chroma subsampling : 4:2:0 
Bit depth : 8 bits 
Scan type : Progressive 
Bits/(Pixel*Frame) : 0.179 
Stream size : 1.09 GiB (88%) 
Writing library : x264 core 120 
Encoded date : UTC 2012-12-28 07:42:54 
Tagged date : UTC 2012-12-28 08:06:09 
Color primaries : BT.601-6 525, BT.1358 525, BT.1700 NTSC, SMPTE 170M 
Transfer characteristics : BT.709-5, BT.1361 
Matrix coefficients : BT.601-6 525, BT.1358 525, BT.1700 NTSC, SMPTE 170M 

Audio 
ID : 2 
Format : AAC 
Format/Info : Advanced Audio Codec 
Format profile : LC 
Codec ID : 40 
Duration : 2h 6mn 
Bit rate mode : Variable 
Bit rate : 164 Kbps 
Maximum bit rate : 255 Kbps 
Channel(s) : 2 channels 
Channel positions : Front: L R 
Sampling rate : 48.0 KHz 
Compression mode : Lossy 
Stream size : 149 MiB (12%) 
Encoded date : UTC 2012-12-28 07:42:54 
Tagged date : UTC 2012-12-28 08:06:09 

Text 
ID : 3 
Format : Apple text 
Codec ID : text 
Duration : 2h 6mn 
Bit rate mode : Constant 
Bit rate : 0 
Stream size : 312 Bytes (0%) 
Encoded date : UTC 2012-12-28 07:42:54 
Tagged date : UTC 2012-12-28 08:06:09 
 
http://www.imdb.com/title/tt0454876/
 
http://bayimg.com/MaiKgaAel
 
http://bayimg.com/KAiMJaael
 
http://bayimg.com/KAIMkAaeL
 
http://bayimg.com/KAimmAaEl		
Life.of.Pi.2012.DVDSCR.m4v 1.337 GB
Gathering some info...

Register and log in Isohunt and see no captcha anymore!

4000 symbols left
Hash 94AD619E1C009E6938B87F9B824E72163F312961

Related torrents for "Life of Pi 2012 DVDSCR m4v"

Torrent search:

screener 2012