imdb
rating

8.0
Life of Pi

Life of Pi (2012)

Action, Adventure, Drama

Full description
quality   dvdrip dvd x264 hd bd fullhd

Life of Pi 2012 DVDSCR Xvid Ac3-ADTRG

Size 2.009 GB   0 seeders     Added 2013-01-19 08:40:37

Stream torrent
Starting‥ You need BitLord! Get it from 1BitLord.com
To download or stream you need BitLord. Visit them at BitLord.com
[img]image[/img]

[code]Complete name : \Life of Pi 2012 DVDSCR Xvid Ac3-ADTRG.avi
Source : DVDSCR [Thanks]
Format : AVI
Format/Info : Audio Video Interleave
File size : 1.85 GiB
Duration : 2h 6mn
Overall bit rate : 2 090 Kbps
Writing application : VirtualDubMod 1.5.10.2 (build 2540/release)
Writing library : VirtualDubMod build 2540/release

Video
ID : 0
Format : MPEG-4 Visual
Format profile : Advanced Simple@L5
Format settings, BVOP : 2
Format settings, QPel : No
Format settings, GMC : No warppoints
Format settings, Matrix : Default (H.263)
Muxing mode : Packed bitstream
Codec ID : XVID
Codec ID/Hint : XviD
Duration : 2h 6mn
Bit rate : 1 696 Kbps
Width : 720 pixels
Height : 384 pixels
Display aspect ratio : 1.875
Frame rate : 23.976 fps
Color space : YUV
Chroma subsampling : 4:2:0
Bit depth : 8 bits
Scan type : Progressive
Compression mode : Lossy
Bits/(Pixel*Frame) : 0.256
Stream size : 1.50 GiB (81%)
Writing library : XviD 64

Audio
ID : 1
Format : AC-3
Format/Info : Audio Coding 3
Mode extension : CM (complete main)
Codec ID : 2000
Duration : 2h 6mn
Bit rate mode : Constant
Bit rate : 384 Kbps
Channel(s) : 2 channels
Channel positions : Front: L R
Sampling rate : 48.0 KHz
Bit depth : 16 bits
Compression mode : Lossy
Stream size : 349 MiB (18%)
Alignment : Split accross interleaves
Interleave, duration : 42 ms (1.00 video frame)
Interleave, preload duration : 500 ms[/code]

[img]image[/img]
[img]image[/img]
[img]image[/img]

Life of Pi 2012 DVDSCR Xvid Ac3-ADTRG.avi 1.99 GB
Life of Pi 2012 DVDSCR Xvid Ac3-ADTRG.avi_snapshot_00.13.10_[2013.01.18_20.13.18].jpg 26.395 KB
Life of Pi 2012 DVDSCR Xvid Ac3-ADTRG.avi_snapshot_00.29.04_[2013.01.18_20.13.43].jpg 49.712 KB
Gathering some info...

Register and log in Isohunt and see no captcha anymore!

4000 symbols left
Hash 84FBCC0C261DA0CE15C3CF4FA2260B4F7BC60818

Related torrents for "Life of Pi 2012 DVDSCR Xvid Ac3-ADTRG"

Torrent search:

screener 2012