Mumbai Mirror (2013) - 1CD - HDScam - Xvid - Mp3 @ BDT

Size 708.836 MB   5 seeders     Added 2013-01-19 15:00:49

Stream torrent
Starting‚Ä• You need BitLord! Get it from 1BitLord.com
To download or stream you need BitLord. Visit them at BitLord.com
[CENTER]
[SIZE=200][COLOR=#FF0000]Mumbai Mirror (2013) - 1CD - HDScam - Xvid - Mp3 @ BDT[/COLOR][/SIZE]


[IMG]image[/IMG]




[COLOR=#daa520][SIZE=150]---::: Info :::---[/SIZE][/COLOR]


[COLOR=#4b0082][SIZE=135][COLOR=#000000][FONT=monospace]General[/FONT][/COLOR]
[COLOR=#000000][FONT=monospace]Complete name : /home/RockStar/downloads/Mumbai Mirror (2013) - 1CD - HDScam - Xvid - Mp3 @ BDT/Mumbai Mirror (2013) - 1CD - HDScam - Xvid - Mp3 @ BDT.avi[/FONT][/COLOR]
[COLOR=#000000][FONT=monospace]Format : AVI[/FONT][/COLOR]
[COLOR=#000000][FONT=monospace]Format/Info : Audio Video Interleave[/FONT][/COLOR]
[COLOR=#000000][FONT=monospace]File size : 676 MiB[/FONT][/COLOR]
[COLOR=#000000][FONT=monospace]Duration : 1h 58mn[/FONT][/COLOR]
[COLOR=#000000][FONT=monospace]Overall bit rate mode : Variable[/FONT][/COLOR]
[COLOR=#000000][FONT=monospace]Overall bit rate : 800 Kbps[/FONT][/COLOR]

[COLOR=#000000][FONT=monospace]Video[/FONT][/COLOR]
[COLOR=#000000][FONT=monospace]ID : 0[/FONT][/COLOR]
[COLOR=#000000][FONT=monospace]Format : MPEG-4 Visual[/FONT][/COLOR]
[COLOR=#000000][FONT=monospace]Format profile : Advanced Simple@L5[/FONT][/COLOR]
[COLOR=#000000][FONT=monospace]Format settings, BVOP : 2[/FONT][/COLOR]
[COLOR=#000000][FONT=monospace]Format settings, QPel : No[/FONT][/COLOR]
[COLOR=#000000][FONT=monospace]Format settings, GMC : No warppoints[/FONT][/COLOR]
[COLOR=#000000][FONT=monospace]Format settings, Matrix : Default (H.263)[/FONT][/COLOR]
[COLOR=#000000][FONT=monospace]Codec ID : XVID[/FONT][/COLOR]
[COLOR=#000000][FONT=monospace]Codec ID/Hint : XviD[/FONT][/COLOR]
[COLOR=#000000][FONT=monospace]Duration : 1h 58mn[/FONT][/COLOR]
[COLOR=#000000][FONT=monospace]Bit rate : 697 Kbps[/FONT][/COLOR]
[COLOR=#000000][FONT=monospace]Width : 592 pixels[/FONT][/COLOR]
[COLOR=#000000][FONT=monospace]Height : 256 pixels[/FONT][/COLOR]
[COLOR=#000000][FONT=monospace]Display aspect ratio : 2.35:1[/FONT][/COLOR]
[COLOR=#000000][FONT=monospace]Frame rate : 25.000 fps[/FONT][/COLOR]
[COLOR=#000000][FONT=monospace]Color space : YUV[/FONT][/COLOR]
[COLOR=#000000][FONT=monospace]Chroma subsampling : 4:2:0[/FONT][/COLOR]
[COLOR=#000000][FONT=monospace]Bit depth : 8 bits[/FONT][/COLOR]
[COLOR=#000000][FONT=monospace]Scan type : Progressive[/FONT][/COLOR]
[COLOR=#000000][FONT=monospace]Compression mode : Lossy[/FONT][/COLOR]
[COLOR=#000000][FONT=monospace]Bits/(Pixel*Frame) : 0.184[/FONT][/COLOR]
[COLOR=#000000][FONT=monospace]Stream size : 589 MiB (87%)[/FONT][/COLOR]
[COLOR=#000000][FONT=monospace]Writing library : XviD 1.2.1 (UTC 2008-12-04)[/FONT][/COLOR]

[COLOR=#000000][FONT=monospace]Audio[/FONT][/COLOR]
[COLOR=#000000][FONT=monospace]ID : 1[/FONT][/COLOR]
[COLOR=#000000][FONT=monospace]Format : MPEG Audio[/FONT][/COLOR]
[COLOR=#000000][FONT=monospace]Format version : Version 1[/FONT][/COLOR]
[COLOR=#000000][FONT=monospace]Format profile : Layer 3[/FONT][/COLOR]
[COLOR=#000000][FONT=monospace]Mode : Joint stereo[/FONT][/COLOR]
[COLOR=#000000][FONT=monospace]Mode extension : MS Stereo[/FONT][/COLOR]
[COLOR=#000000][FONT=monospace]Codec ID : 55[/FONT][/COLOR]
[COLOR=#000000][FONT=monospace]Codec ID/Hint : MP3[/FONT][/COLOR]
[COLOR=#000000][FONT=monospace]Duration : 1h 58mn[/FONT][/COLOR]
[COLOR=#000000][FONT=monospace]Bit rate mode : Variable[/FONT][/COLOR]
[COLOR=#000000][FONT=monospace]Bit rate : 96.0 Kbps[/FONT][/COLOR]
[COLOR=#000000][FONT=monospace]Channel(s) : 2 channels[/FONT][/COLOR]
[COLOR=#000000][FONT=monospace]Sampling rate : 32.0 KHz[/FONT][/COLOR]
[COLOR=#000000][FONT=monospace]Compression mode : Lossy[/FONT][/COLOR]
[COLOR=#000000][FONT=monospace]Stream size : 78.3 MiB (12%)[/FONT][/COLOR]
[COLOR=#000000][FONT=monospace]Alignment : Aligned on interleaves[/FONT][/COLOR]
[COLOR=#000000][FONT=monospace]Interleave, duration : 36 ms (0.90 video frame)[/FONT][/COLOR]
[COLOR=#000000][FONT=monospace]Interleave, preload duration : 167 ms[/FONT][/COLOR]
[COLOR=#000000][FONT=monospace]Title : VTS_01_1 Tc0 L2 2ch 48 128 DELAY 0ms[/FONT][/COLOR]
[COLOR=#000000][FONT=monospace]Writing library : LAME3.99r[/FONT][/COLOR]
[COLOR=#000000][FONT=monospace]Encoding settings : -m j -V 4 -q 2 -lowpass 15.1 --abr 96[/FONT][/COLOR][/SIZE][/COLOR]




[COLOR=#daa520][SIZE=150]---::: Screens :::---[/SIZE][/COLOR]


[URL="http://imageshack.us/photo/my-images/28/frame14.png/"][IMG]image[/IMG][/URL]
[URL="http://imageshack.us/photo/my-images/819/frame13.png/"][IMG]image[/IMG][/URL]
[URL="http://imageshack.us/photo/my-images/849/frame6z.png/"][IMG]image[/IMG][/URL]
[URL="http://imageshack.us/photo/my-images/823/frame0o.png/"][IMG]image[/IMG][/URL]
[URL="http://imageshack.us/photo/my-images/690/frame7q.png/"][IMG]image[/IMG][/URL]
[URL="http://imageshack.us/photo/my-images/338/frame5w.png/"][IMG]image[/IMG][/URL]
[URL="http://imageshack.us/photo/my-images/339/frame4g.png/"][IMG]image[/IMG][/URL]
[URL="http://imageshack.us/photo/my-images/705/frame3zi.png/"][IMG]image[/IMG][/URL]
[URL="http://imageshack.us/photo/my-images/72/frame2y.png/"][IMG]image[/IMG][/URL]
[URL="http://imageshack.us/photo/my-images/194/frame1ds.png/"][IMG]image[/IMG][/URL]
[URL="http://imageshack.us/photo/my-images/685/frame8r.png/"][IMG]image[/IMG][/URL]
[URL="http://imageshack.us/photo/my-images/26/frame9.png/"][IMG]image[/IMG][/URL]
[URL="http://imageshack.us/photo/my-images/152/frame10.png/"][IMG]image[/IMG][/URL]
[URL="http://imageshack.us/photo/my-images/838/frame11.png/"][IMG]image[/IMG][/URL]
[URL="http://imageshack.us/photo/my-images/802/frame12.png/"][IMG]image[/IMG][/URL]



[/CENTER]
Torrent Seeded From QmrBox.com.txt 91 B
Torrent Posted On ExtraTorrent.com.txt 55 B
Torrent Downloaded from www..bollydesi.com.txt 1.263 KB
Gathering some info...

Register and log in Isohunt and see no captcha anymore!

4000 symbols left
Hash 8771F284A688957557502BD84A5C8119C9C96E82