Archer 401 avi

Size 633.358 MB   0 seeders     Added 2013-01-20 05:39:41

Stream torrent
Starting‥ You need BitLord! Get it from BitLord.com
To download or stream you need BitLord. Visit them at BitLord.com
Sorry its a bit late, I've been playing Gran Turismo 4 for the PS2 lol...

I'll be doing these every week, hopefully on time too. I'll be doing Game of Thrones religiously too  once that comes out... same with Legend of Korra, and if you want anything else, let me know in a comment, I'll do any xbox 360 or ps3 content, I'm thinking about making an e-mail newsletter or something too.... to post when I post new things, so if you are interested in that, then let me knowwwwwww

Enjoy, pirates.

Video
ID                                       : 0
Format                                   : MPEG-4 Visual
Format profile                           : Simple@L3
Format settings, BVOP                    : No
Format settings, QPel                    : No
Format settings, GMC                     : No warppoints
Format settings, Matrix                  : Default (H.263)
Codec ID                                 : XVID
Codec ID/Hint                            : XviD
Duration                                 : 20mn 48s
Source duration                          : 20mn 49s
Bit rate                                 : 3 731 Kbps
Width                                    : 1 280 pixels
Height                                   : 720 pixels
Display aspect ratio                     : 16:9
Frame rate                               : 24.000 fps
Color space                              : YUV
Chroma subsampling                       : 4:2:0
Bit depth                                : 8 bits
Scan type                                : Progressive
Compression mode                         : Lossy
Bits/(Pixel*Frame)                       : 0.169
Stream size                              : 556 MiB (92%)
Writing library                          : XviD 63

Audio
ID                                       : 1
Format                                   : MPEG Audio
Format version                           : Version 1
Format profile                           : Layer 3
Mode                                     : Joint stereo
Codec ID                                 : 55
Codec ID/Hint                            : MP3
Duration                                 : 20mn 48s
Bit rate mode                            : Variable
Bit rate                                 : 313 Kbps
Channel(s)                               : 2 channels
Sampling rate                            : 48.0 KHz
Compression mode                         : Lossy
Stream size                              : 46.6 MiB (8%)
Alignment                                : Aligned on interleaves
Interleave, duration                     : 24 ms (0.58 video frame)
Interleave, preload duration             : 202 ms
Archer 401.avi 633.358 MB
Gathering some info...

Register and log in Isohunt and see no captcha anymore!

4000 symbols left
Hash FC13649CA57E71E579FA2D23E815D305D30E97D0