GA 910 avi

Size 941.209 MB   0 seeders     Added 2013-01-20 05:40:21

Stream torrent
Starting‚Ä• You need BitLord! Get it from BitLord.com
To download or stream you need BitLord. Visit them at BitLord.com
Sorry its a bit late, I've been playing Gran Turismo 4 for the PS2 lol...

I'll be doing Game of Thrones religiously too  once that comes out... same with Legend of Korra, and if you want anything else, let me know in a comment, I'll do any xbox 360 or ps3 content, I'm thinking about making an e-mail newsletter or something too.... to post when I post new things, so if you are interested in that, then let me knowwwwwww

Enjoy, pirates.


Video
ID                                       : 0
Format                                   : MPEG-4 Visual
Format profile                           : Simple@L3
Format settings, BVOP                    : No
Format settings, QPel                    : No
Format settings, GMC                     : No warppoints
Format settings, Matrix                  : Default (H.263)
Codec ID                                 : XVID
Codec ID/Hint                            : XviD
Duration                                 : 42mn 1s
Source duration                          : 42mn 1s
Bit rate                                 : 2 665 Kbps
Width                                    : 1 280 pixels
Height                                   : 720 pixels
Display aspect ratio                     : 16:9
Frame rate                               : 24.000 fps
Color space                              : YUV
Chroma subsampling                       : 4:2:0
Bit depth                                : 8 bits
Scan type                                : Progressive
Compression mode                         : Lossy
Bits/(Pixel*Frame)                       : 0.120
Stream size                              : 801 MiB (89%)
Writing library                          : XviD 63

Audio
ID                                       : 1
Format                                   : MPEG Audio
Format version                           : Version 1
Format profile                           : Layer 3
Mode                                     : Joint stereo
Mode extension                           : MS Stereo
Codec ID                                 : 55
Codec ID/Hint                            : MP3
Duration                                 : 42mn 1s
Bit rate mode                            : Variable
Bit rate                                 : 309 Kbps
Channel(s)                               : 2 channels
Sampling rate                            : 48.0 KHz
Compression mode                         : Lossy
Stream size                              : 92.8 MiB (10%)
Alignment                                : Aligned on interleaves
Interleave, duration                     : 24 ms (0.58 video frame)
Interleave, preload duration             : 507 ms

		
GA 910.avi 941.209 MB
Gathering some info...

Register and log in Isohunt and see no captcha anymore!

4000 symbols left
Hash 402E0FDDCB5DF4FC427D438B9285E7D9C369B80D