The.Hobbit.2012.DVDScr.XVID.AC3.HQ.Hive-CM8

Size 2.533 GB   4 seeders     Added 2013-01-20 09:53:37

Stream torrent
Starting‚Ä• You need BitLord! Get it from 1BitLord.com
To download or stream you need BitLord. Visit them at BitLord.com
The.Hobbit.2012.DVDScr.XVID.AC3.HQ.Hive-CM8
Source: DVDSCR - Thekillingjoke Big Thx
Video: 720x304 @bitrate 1700 2pass
Audio: English AC3 2.0 Stereo
Sample:yes included[/b] 
http://www.imdb.com/title/tt0903624/

General
Complete name: The.Hobbit.2012.DVDScr.XVID.AC3.HQ.Hive-CM8.avi
Format: AVI
Format/Info: Audio Video Interleave
Format profile: OpenDML
Format settings: rec
File size: 2.32 GiB
Duration: 2h 49mn
Overall bit rate: 1 959 Kbps
Writing application: AVI-Mux GUI 1.17.7, Aug 8 2006 20:59:17

Video
ID: 0
Format: MPEG-4 Visual
Format profile: Advanced Simple@L5
Format settings, BVOP: 2
Format settings, QPel: Yes
Format settings, GMC: No warppoints
Format settings, Matrix: Default (H.263)
Muxing mode: Packed bitstream
Codec ID: XVID
Codec ID/Hint: XviD
Duration: 2h 49mn
Bit rate: 1 697 Kbps
Width: 720 pixels
Height: 304 pixels
Display aspect ratio: 2.35:1
Frame rate: 29.534 fps
Original frame rate: 29.547 fps
Color space: YUV
Chroma subsampling: 4:2:0
Bit depth: 8 bits
Scan type: Progressive
Compression mode: Lossy
Bits/(Pixel*Frame): 0.263
Stream size: 2.01 GiB (87%)
Writing library: XviD 1.2.1 (UTC 2008-12-04)

Audio
ID: 1
Format: AC-3
Format/Info: Audio Coding 3
Mode extension: CM (complete main)
Format settings, Endianness: Big
Codec ID: 2000
Duration: 2h 49mn
Bit rate mode: Constant
Bit rate: 256 Kbps
Channel(s): 2 channels
Channel positions: Front: L R
Sampling rate: 48.0 KHz
Bit depth: 16 bits
Compression mode: Lossy
Stream size: 310 MiB (13%)
Alignment: Split accross interleaves
Interleave, duration: 64 ms (1.89 video frames)
Interleave, preload duration: 192 ms		
Read this before playing this Video.txt 222 B
sample.avi 40.882 MB
The.Hobbit.2012.DVDScr.XVID.AC3.HQ.Hive-CM8.avi 2.492 GB
Gathering some info...

Register and log in Isohunt and see no captcha anymore!

4000 symbols left
Hash 50163415471759C228F09B7594B7361CEFD93301

We have tons of cool stuff like this:

Torrent search:

screener 2012