Człowiek z Hawru - Le Havre (2011) [720p.BluRay.AC3.x264] [Lektor PL]

Size 7.729 GB   0 seeders     Added 2013-01-20 20:20:46

Stream torrent
Starting‥ You need BitLord! Get it from BitLord.com
To download or stream you need BitLord. Visit them at BitLord.com
Gatunek:Dramat/Komedia
 Produkcja:Finlandia/Francja/Niemcy
 Premiera:17 maja 2011 (świat)
 Reżyseria:Aki Kaurismäki
 Scenariusz:Aki Kaurismäki
 
Opis filmu
 
"Człowiek z Hawru" to najnowsza komedia mistrza czarnego humoru Akiego Kaurismakiego. To opowieść rozgrywająca się w zapomnianym przez świat portowym mieście, gdzie żyje grupa wyjątkowo barwnych postaci. Galerię komicznych typów tworzą: uroczo naiwny pucybut, uciekinier z Afryki, cyniczny detektyw, dawna gwiazda rock and rolla, a także wyjątkowo inteligentny pies. 

Dane techniczne
 
Format : Matroska
 Format version : Version 2
 File size : 7.20 GiB
 Duration : 1h 29mn
 Overall bit rate : 11.5 Mbps
 Writing application : mkvmerge v5.6.0
 Writing library : libebml v1.2.3 + libmatroska v1.3.0
 Video #1
 ID : 1
 Format : AVC
 Format/Info : Advanced Video Codec
 Format profile : High@L4.1
 Format settings, CABAC : Yes
 Format settings, ReFrames : 9 frames
 Muxing mode : Header stripping
 Codec ID : V_MPEG4/ISO/AVC
 Duration : 1h 29mn
 Bit rate : 11.1 Mbps
 Width : 1 280 pixels
 Height : 690 pixels
 Display aspect ratio : 1.85:1
 Frame rate mode : Constant
 Frame rate : 25.000 fps
 Color space : YUV
 Chroma subsampling : 4:2:0
 Bit depth : 8 bits
 Scan type : Progressive
 Bits/(Pixel*Frame) : 0.502
 Stream size : 6.93 GiB (96%)
 Title : EbP CRF
 Writing library : x264 
Language : French
 Default : Yes
 Forced : No
 Audio #2
 ID : 2
 Format : AC-3
 Format/Info : Audio Coding 3
 Mode extension : CM (complete main)
 Format settings, Endianness : Big
 Muxing mode : Header stripping
 Codec ID : A_AC3
 Duration : 1h 29mn
 Bit rate mode : Constant
 Bit rate : 192 Kbps
 Channel(s) : 2 channels
 Channel positions : Front: L R
 Sampling rate : 48.0 KHz
 Bit depth : 16 bits
 Compression mode : Lossy
 Stream size : 123 MiB (2%)
 Language : Polish
 Default : Yes
 Forced : No 
Le Havre 2011 PL 720p BluRay AC3 x264.mkv 7.729 GB
Gathering some info...

Register and log in Isohunt and see no captcha anymore!

4000 symbols left
Hash 19F0270EC8707A682E1126179FBC74850982EB8C