imdb
rating

5.1
A Haunted House

A Haunted House (2013)

Comedy, Horror

Full description
quality   dvdrip h264 hd cam screener

A Haunted House 2013 DVDScr XVID AC3 HQ Hive-CM8

Size 1.338 GB   0 seeders     Added 2013-01-21 01:29:08

Stream torrent
Starting‥ You need BitLord! Get it from 1BitLord.com
To download or stream you need BitLord. Visit them at BitLord.com
A Haunted House.2013.DVDScr.XVID.AC3.HQ.Hive-CM8\r\n\r\nFormat                           : AVI\r\nFormat/Info                      : Audio Video Interleave\r\nFormat profile                   : OpenDML\r\nDuration                         : 110 minutes\r\nOverall bit rate                 : 1 206 Kbps\r\nWriting application              : VirtualDubMod 1.5.10.2 (build 2542/release)\r\nWriting library                  : VirtualDubMod build 2542/release\r\nOriginal source form             : MAX TORRENTZ\r\nCopyright                        : SIGISMUNT\r\n\r\nVideo\r\nID                               : 0\r\nFormat                           : MPEG-4 Visual\r\nFormat profile                   : AdvancedSimple@L5\r\nFormat settings, BVOP            : Yes\r\nFormat settings, QPel            : No\r\nFormat settings, GMC             : No warppoints\r\nFormat settings, Matrix          : Default (H.263)\r\nMuxing mode                      : Packed bitstream\r\nCodec ID                         : XVID\r\nCodec ID/Hint                    : XviD\r\nDuration                         : 110 minutes\r\nBit rate                         : 1 010 Kbps\r\nWidth                            : 640 pixels\r\nHeight                           : 272 pixels\r\nDisplay aspect ratio             : 2.35:1\r\nFrame rate                       : 23.976 fps\r\nResolution                       : 24 bits\r\nColorimetry                      : 4:2:0\r\nScan type                        : Progressive\r\nBits/(Pixel*Frame)               : 0.242\r\nStream size                      : 962 MiB (84%)\r\nWriting library                  : XviD 57\r\n\r\nAudio\r\nID                               : 1\r\nFormat                           : MPEG Audio\r\nFormat version                   : Version 1\r\nFormat profile                   : Layer 3\r\nCodec ID                         : 55\r\nCodec ID/Hint                    : MP3\r\nDuration                         : 110 minutes\r\nBit rate mode                    : Constant\r\nBit rate                         : 192 Kbps\r\nChannel(s)                       : 2 channels\r\nSampling rate                    : 48.0 KHz\r\nResolution                       : 16 bits\r\nStream size                      : 183 MiB (16%)\r\nAlignment                        : Aligned on interleaves\r\nInterleave, duration             : 712 ms (17.08 video frames)\r\nInterleave, preload duration     : 216 ms\r\nWriting library                  : LAME3.98.2\r\n \r\nSource: DVD (perfect a/v/sync quality+filtered audio with additional 400% volume , sample is included)\r\n\r\nA Haunted House.2013.DVDScr.XVID.AC3.HQ.Hive-CM8 Free Download\r\n\r\nTorrent Client - Preferences - Bandwidth - Number of connections - Set aprox. 500 for each \r\nTorrent Client - Preferences - BiTorrent - Protocol Encryption - Forced\r\nBandwidth Allocation - High (Set download/upload limit - Unlimited)\r\nStop Other Active Torrents - Start downloading and wait for connections.\r\nEnjoy and Seed for at least 1:1 ratio. Don\'t forget to say thanks/leave reviews.\r\nBefore downloading you should check/google search sample \"release name\"\"sample\".\r\nGreets to all actual/future p2p/scene QUALITY groups and affiliate websites.\r\nDon\'t trust IMDb robot or bad ratings,always watch some trailers first.\r\nPlease spread this release/torrent to your friends/forums/etc.\r\nIf you need translation subs visit some subtitles sites.\r\nReport if you see online streaming or other spam links.\r\nRecommended movie player VLC PLAYER. Torrent Free Download
A Haunted House.2013.DVDScr.XVID.AC3.HQ.Hive-CM8/A Haunted House.2013.DVDScr.XVID.AC3.HQ.Hive-CM8.avi 1.306 GB
A Haunted House.2013.DVDScr.XVID.AC3.HQ.Hive-CM8/MOVIE.nfo 4.858 KB
A Haunted House.2013.DVDScr.XVID.AC3.HQ.Hive-CM8/sample.mp4 31.218 MB
Gathering some info...

Register and log in Isohunt and see no captcha anymore!

4000 symbols left
Hash d075843eda2f159279ecf35beb81c5a01ca7735d

Related torrents for "A Haunted House 2013 DVDScr XVID AC3 HQ Hive-CM8"

Torrent search:

screener 2013