imdb
rating

5.6
The Truth

The Truth (2012)

Action, Thriller

Full description

The Truth 2012 FRENCH DVDRiP XViD - TASTE

Size 735.365 MB   0 seeders     Added 2013-01-21 01:43:26

Stream torrent
Starting‥ You need BitLord! Get it from BitLord.com
To download or stream you need BitLord. Visit them at BitLord.com
The Truth 2012 FRENCH  DVDRiP XViD - TASTE\r\n\r\n\r\n\r\nMovie info :\r\nGENRE............: Action | Thriller  \r\nIMDB RATING......: 5.2/10 from 1,151 users   Metascore: 31/100\r\n\r\n\r\nSTATS:\r\n\r\nVideo\r\nID                               : 0\r\nFormat                           : MPEG-4 Visual\r\nFormat profile                   : Advanced Simple@L5\r\nFormat settings, BVOP            : 2\r\nFormat settings, QPel            : No\r\nFormat settings, GMC             : No warppoints\r\nFormat settings, Matrix          : Default (MPEG)\r\nMuxing mode                      : Packed bitstream\r\nCodec ID                         : XVID\r\nCodec ID/Hint                    : XviD\r\nDuration                         : 1h 46mn\r\nBit rate                         : 986 Kbps\r\nWidth                            : 720 pixels\r\nHeight                           : 320 pixels\r\nDisplay aspect ratio             : 2.25:1\r\nFrame rate                       : 29.970 fps\r\nColor space                      : YUV\r\nChroma subsampling               : 4:2:0\r\nBit depth                        : 8 bits\r\nScan type                        : Progressive\r\nCompression mode                 : Lossy\r\nBits/(Pixel*Frame)               : 0.243\r\nStream size                      : 647 MiB (92%)\r\nWriting library                  : XviD 64\r\n\r\nAudio\r\n\r\nFormat                           : MPEG Audio\r\nFormat version                   : Version 1\r\nFormat profile                   : Layer 3\r\nMode                             : Joint stereo\r\nMode extension                   : MS Stereo\r\nCodec ID                         : 55\r\nCodec ID/Hint                    : MP3\r\nDuration                         : 1h 46mn\r\nBit rate mode                    : Constant\r\nBit rate                         : 128 Kbps\r\nChannel(s)                       : 2 channels\r\nSampling rate                    : 48.0 KHz\r\nCompression mode                 : Lossy\r\nStream size                      : 56 MiB (7%)\r\nAlignment                        : Split accross interleaves\r\nInterleave, duration             : 33 ms (1.00 video frame)\r\nInterleave, preload duration     : 500 ms\r\n\r\n\r\n\r\n\r\n\r\n\r\n\r\n\r\n\r\n
The Truth 2012 FRENCH DVDRiP XViD - TASTE/Screenshot01 .png 155.333 KB
The Truth 2012 FRENCH DVDRiP XViD - TASTE/Screenshot02 .png 102.127 KB
The Truth 2012 FRENCH DVDRiP XViD - TASTE/Screenshot03 .png 53.154 KB
Gathering some info...

Register and log in Isohunt and see no captcha anymore!

4000 symbols left
Hash b9ea466b0a245741ac034478fa69feb916ebbe1a

Related torrents for "The Truth 2012 FRENCH DVDRiP XViD - TASTE"

Torrent search:

dvdrip french 2012