imdb
rating

8.0
Casino Royale

Casino Royale (2006)

Action, Adventure, Thriller

Full description

CASINO_ROYALE

Size 911.461 MB   2 seeders     Added 2013-01-21 06:34:34

Stream torrent
Starting‥ You need BitLord! Get it from 1BitLord.com
To download or stream you need BitLord. Visit them at BitLord.com
Cover : 
[IMG]image[/IMG]

Screens :
 
image 
image 
image 
image

Info :

Video
ID : 1
Format : AVC
Format/Info : Advanced Video Codec
Format profile : Main@L3.0
Format settings, CABAC : Yes
Format settings, ReFrames : 1 frame
Codec ID : avc1
Codec ID/Info : Advanced Video Coding
Duration : 2h 24mn
Bit rate mode : Variable
Bit rate : 772 Kbps
Width : 640 pixels
Height : 360 pixels
Display aspect ratio : 16:9
Frame rate mode : Variable
Frame rate : 23.976 fps
Minimum frame rate : 23.974 fps
Maximum frame rate : 90.000 fps
Color space : YUV
Chroma subsampling : 4:2:0
Bit depth : 8 bits
Scan type : Progressive
Bits/(Pixel*Frame) : 0.140
Stream size : 796 MiB (92%)
Writing library : x264 core
Encoded date : UTC 2013-01-20 17:55:11
Tagged date : UTC 2013-01-20 18:21:35
Color primaries : BT.601 NTSC
Transfer characteristics : BT.709
Matrix coefficients : BT.601

Audio
ID : 2
Format : MPEG Audio
Format version : Version 1
Format profile : Layer 3
Mode : Joint stereo
Mode extension : MS Stereo
Codec ID : 69
Duration : 2h 24mn
Bit rate mode : Constant
Bit rate : 64.0 Kbps
Channel(s) : 2 channels
Sampling rate : 48.0 KHz
Compression mode : Lossy
Stream size : 66.0 MiB (8%)
Writing library : LAME3.98.4
Encoded date : UTC 2013-01-20 17:55:11
Tagged date : UTC 2013-01-20 18:21:29
		
CASINO_ROYALE.Title1.idx 48.434 KB
CASINO_ROYALE.Title1.mp4 906.729 MB
CASINO_ROYALE.Title1.sub 4.684 MB
Gathering some info...

Register and log in Isohunt and see no captcha anymore!

4000 symbols left
Hash C4B6E41BA799473C0BCEF916DB75999019670A89

Related torrents for "CASINO_ROYALE"