imdb
rating

7.2
E-Team

E-Team (2014)

Documentary

Full description
quality   dvdrip x264 cam screener hd

A_TEAM

Size 789.307 MB   2 seeders     Added 2013-01-21 09:35:29

Stream torrent
Starting‥ You need BitLord! Get it from BitLord.com
To download or stream you need BitLord. Visit them at BitLord.com
Screens :  
image
 
image
 
image
 
image
 
image
 
image
 
image

Info :
Video
ID : 1
Format : AVC
Format/Info : Advanced Video Codec
Format profile : Main@L3.0
Format settings, CABAC : Yes
Format settings, ReFrames : 1 frame
Codec ID : avc1
Codec ID/Info : Advanced Video Coding
Duration : 1h 58mn
Bit rate mode : Variable
Bit rate : 813 Kbps
Width : 720 pixels
Height : 314 pixels
Display aspect ratio : 2.25:1
Frame rate mode : Variable
Frame rate : 23.976 fps
Minimum frame rate : 23.974 fps
Maximum frame rate : 90.000 fps
Color space : YUV
Chroma subsampling : 4:2:0
Bit depth : 8 bits
Scan type : Progressive
Bits/(Pixel*Frame) : 0.150
Stream size : 691 MiB (92%)
Writing library : x264 core
Encoded date : UTC 2013-01-20 19:39:32
Tagged date : UTC 2013-01-20 20:09:32
Color primaries : BT.601 NTSC
Transfer characteristics : BT.709
Matrix coefficients : BT.601

Audio
ID : 2
Format : MPEG Audio
Format version : Version 1
Format profile : Layer 3
Mode : Joint stereo
Mode extension : MS Stereo
Codec ID : 69
Duration : 1h 58mn
Bit rate mode : Constant
Bit rate : 64.0 Kbps
Channel(s) : 2 channels
Sampling rate : 48.0 KHz
Compression mode : Lossy
Stream size : 54.4 MiB (7%)
Writing library : LAME3.98.4
Encoded date : UTC 2013-01-20 19:39:32
Tagged date : UTC 2013-01-20 20:09:23
		
A_TEAM.Title1.idx 85.694 KB
A_TEAM.Title1.mp4 783.79 MB
A_TEAM.Title1.sub 5.431 MB
Gathering some info...

Register and log in Isohunt and see no captcha anymore!

4000 symbols left
Hash 9685FDCD55EDE8E6986BBC4761CC71EE09A13EA4

Related torrents for "A_TEAM"