Tiramisu 2008 DVDrip Nederlands Skandale

Size 1.573 GB   7 seeders     Added 2013-01-21 15:40:22

Stream torrent
Starting‥ You need BitLord! Get it from 1BitLord.com
To download or stream you need BitLord. Visit them at BitLord.com
[IMG]image[/IMG]
Nederland
Drama
90 minuten / 80 minuten (dvd-versie)

geregisseerd door Paula van der Oest
met Anneke Blok, Jacob Derwig en Olga Zuiderhoek

Anne (Anneke Blok) is een getalenteerd en flamboyant actrice. Ze woont op een woonboot in de binnenhaven van Amsterdam, samen met haar dochter Masja. Ze is een jaar of drie geleden gescheiden van Lex. Iedereen is dol op Anne, haar mede-acteurs zijn in feite haar familie. Na het thuiskomen van een première, valt Anne met haar dronken kop van de trap van de kade. De volgende dag wordt ze gewekt door de deurbel. Met bonkend hoofd en een opgezwollen enkel doet ze open en staat tot haar verbazing oog in oog met een keurige, enigszins burgerlijke man met een koffertje in zijn hand. Hij stelt zich voor als Jacob, haar nieuwe boekhouder. Jacob schrikt wanneer hij ontdekt dat Anne het niet zo nauw neemt met haar uitgaven en enorme schulden heeft. Anne lijkt in eerste instantie niet erg onder de indruk, maar wanneer het tot haar doordringt wat er aan de hand is, raakt ze langzaam maar zeker in blinde paniek, ze wil haar geliefde woonboot absoluut niet kwijt.

http://www.imdb.com/title/tt0875701/

General
Complete name : Tiramisu 2008.avi
Format : AVI
Format/Info : Audio Video Interleave
File size : 1.46 GiB
Duration : 1h 17mn
Overall bit rate : 2 692 Kbps

Video
ID : 0
Format : MPEG-4 Visual
Format profile : Simple@L3
Format settings, BVOP : No
Format settings, QPel : No
Format settings, GMC : No warppoints
Format settings, Matrix : Default (H.263)
Codec ID : XVID
Codec ID/Hint : XviD
Duration : 1h 17mn
Bit rate : 2 233 Kbps
Width : 624 pixels
Height : 336 pixels
Display aspect ratio : 1.857
Frame rate : 25.000 fps
Color space : YUV
Chroma subsampling : 4:2:0
Bit depth : 8 bits
Scan type : Progressive
Bits/(Pixel*Frame) : 0.426
Stream size : 1.21 GiB (83%)
Writing library : XviD 1.1.2 (UTC 2006-11-01)

Audio
ID : 1
Format : AC-3
Format/Info : Audio Coding 3
Mode extension : CM (complete main)
Codec ID : 2000
Duration : 1h 17mn
Bit rate mode : Constant
Bit rate : 448 Kbps
Channel(s) : 6 channels
Channel positions : Front: L C R, Side: L R, LFE
Sampling rate : 48.0 KHz
Stream size : 250 MiB (17%)
Alignment : Aligned on interleaves
Interleave, duration : 32 ms (0.80 video frame)
Cover/flyer.jpg 33.678 KB
Cover/tiramisu cover.jpg 809.896 KB
New Dutch Site.txt 117 B
Gathering some info...

Register and log in Isohunt and see no captcha anymore!

4000 symbols left
Hash 06823DAA547A9F6DBBF7854C3DB5884BC23DE6D5