imdb
rating

6.0
Mr. Popper's Penguins

Mr. Popper's Penguins (2011)

Comedy, Family

Full description

Mr. Popper's Penguins (2011) - I Pinguini di Mr. Popper [XviD - Italian English Ac3 5.1 - Sub Ita Eng] MIRCrew [TNT Village]

Size 1.763 GB   26 seeders     Added 2013-01-21 23:22:13

Stream torrent
Starting‥ You need BitLord! Get it from BitLord.com
To download or stream you need BitLord. Visit them at BitLord.com
Mr. Popper's Penguins (2011) - I Pinguini di Mr. Popper [XviD - Italian English Ac3 5.1 - Sub Ita Eng] MIRCrew [TNT Village]


I Pinguini di Mr. Popper - Mr. Popper's Penguins (2011) [XviD - Ita Eng Ac3 5.1 - Sub Ita Eng] Commedia MIRCrew



[color=#3366FF][b][IMG]image[/IMG]

I Pinguini di Mr. Popper - Mr. Popper's Penguins (2011)


[URL=http://www.imdb.com/title/tt1396218/][IMG]image[/IMG][/URL]

[IMG]image[/IMG]

[IMG]image[/IMG]

Titolo originale 	Mr. Popper's Penguins
Paese di produzione 	USA
Anno 	2011
Durata 	90 min
Genere 	commedia
Regia 	Mark Waters
Soggetto 	Richard e Florence Atwater
Sceneggiatura 	Sean Anders, John Morris, Jared Stern
Casa di produzione 	Davis Entertainment
20th Century Fox
Distribuzione (Italia) 	20th Century Fox
Fotografia 	Florian Ballhaus
Montaggio 	Bruce Green
Musiche 	Rolfe Kent
Scenografia 	Stuart Wurtzel

[IMG]image[/IMG]

[IMG]image[/IMG]

[IMG]image[/IMG]


[IMG]image[/IMG]

 Jim Carrey: Tom Popper
 Carla Gugino: Amanda Popper
 Madeline Carroll: Janie Popper
 Maxwell Perry Cotton: Billy Popper
 Ophelia Lovibond: Pippy
 Angela Lansbury: Selma Van Gundy
 Philip Baker Hall: Sig. Franklin
 Dominic Chianese: Sig. Reader
 Jeffrey Tambor: Mr. Gremmins
 Clark Gregg: Nat Jones
 William C. Mitchell: Yates
 Lee Moore: Reginald
 Charles L. Campbell: Tom Popper Sr. (voce)
 Brian T. Delaney: Tom Popper Sr. da giovane (voce)
 Henry Kelemen: Tom Popper a 6 anni
 Dylan Clark Marshall: Tom Popper a 10 anni
 Desmin Borges: Daryl
 David Krumholtz: Kent
 James Tupper: Rick

Doppiatori italiani

 Roberto Pedicini: Tom Popper
 Sabrina Duranti: Amanda Popper
 Lilian Caputo: Janie Popper
 Arturo Valli: Billy Popper
 Perla Liberatori: Pippy
 Alina Moradei: Selma Van Gundy
 Bruno Alessandro: Sig. Franklin
 Dante Biagioni: Sig. Reader
 Roberto Certomà: Nat Jones
 Dario Penne: Yates
 Carlo Sabatini: Reginald
 Carlo Reali: Tom Popper Sr.
 Fabrizio Vidale: Tom Popper Sr. da giovane
 Gabriele Caprio: Tom Popper a 6 anni
 Andrea Di Maggio: Tom Popper a 10 anni
 Riccardo Scarafoni: Daryl
 Emiliano Coltorti: Kent
 Fabrizio Russotto: Rick

[IMG]image[/IMG]

[IMG]image[/IMG]

[IMG]image[/IMG]

Tom Popper è un immobiliarista dedito al lavoro con due figli, un matrimonio finito con Amanda ed un'infanzia trascorsa lontano dal padre avventuriero. La sua vita viene stravolta quando, 

come eredità, gli viene recapitata una cassa contenente un pinguino Papua, cui ne segue una seconda con altri cinque pinguini. Mentre cerca un modo per sbarazzarsene, Mr. Popper deve 

riuscire ad acquistare il Tavern on the Green, leggendario locale di Central Park; in questo modo diventerà uno dei soci della società per cui lavora. L'ultima proprietaria del locale, 

Selma Van Gundy, è però un osso duro...................

[u]Storyline[/u]

One day, the Popper family tunes in to a radio broadcast by an Admiral traveling to many countries. Mr. Popper had previously sent the Admiral fan mail, and the Admiral promises Mr. 

Popper a surprise. The surprise turns out to be a penguin, which comes in a large box. Mr. Popper names the penguin "Captain Cook" after the famous James Cook. Mr. Popper cleans out the 

icebox so that the penguin can sleep inside. As time goes by, the Poppers find that Captain Cook is growing large, but his health is failing. Mr. Popper writes to the curator of a large 

aquarium, asking for help. The curator replies that the aquarium has a female penguin, Greta, who unfortunately is also experiencing the same symptoms, and he suggests that perhaps the 

penguins are simply lonely. Soon after, the Poppers receive their second penguin in the mail.........





[IMG]image[/IMG]


General
Complete name : I Pinguini di Mr. Popper - Mr. Popper's Penguins (2011).avi
Format : AVI
Format/Info : Audio Video Interleave
File size : 1.63 GiB
Duration : 1h 30mn
Overall bit rate : 2 572 Kbps
Writing application : VirtualDubMod 1.5.4.1 (build 2178/release)
Writing library : VirtualDubMod build 2178/release

Video
ID : 0
Format : MPEG-4 Visual
Format profile : Advanced Simple@L5
Format settings, BVOP : No
Format settings, QPel : No
Format settings, GMC : No warppoints
Format settings, Matrix : Custom
Codec ID : XVID
Codec ID/Hint : XviD
Duration : 1h 30mn
Bit rate : 1 732 Kbps
Width : 720 pixels
Height : 400 pixels
Display aspect ratio : 16:9
Frame rate : 25.000 fps
Color space : YUV
Chroma subsampling : 4:2:0
Bit depth : 8 bits
Scan type : Progressive
Bits/(Pixel*Frame) : 0.240
Stream size : 1.09 GiB (67%)
Writing library : XviD 1.2.1 (UTC 2008-12-04)

Audio #1
ID : 1
Format : AC-3
Format/Info : Audio Coding 3
Mode extension : CM (complete main)
Codec ID : 2000
Duration : 1h 30mn
Bit rate mode : Constant
Bit rate : 384 Kbps
Channel(s) : 6 channels
Channel positions : Front: L C R, Side: L R, LFE
Sampling rate : 48.0 KHz
Bit depth : 16 bits
Stream size : 248 MiB (15%)
Alignment : Aligned on interleaves
Interleave, duration : 96 ms (2.40 video frames)
Interleave, preload duration : 96 ms
Language : Italian

Audio #2
ID : 2
Format : AC-3
Format/Info : Audio Coding 3
Mode extension : CM (complete main)
Codec ID : 2000
Duration : 1h 30mn
Bit rate mode : Constant
Bit rate : 448 Kbps
Channel(s) : 6 channels
Channel positions : Front: L C R, Side: L R, LFE
Sampling rate : 48.0 KHz
Bit depth : 16 bits
Stream size : 290 MiB (17%)
Alignment : Aligned on interleaves
Interleave, duration : 96 ms (2.40 video frames)
Interleave, preload duration : 96 ms
Language : English


[IMG]image[/IMG]

[/b][/color]





I Pinguini di Mr. Popper - Mr. Popper's Penguins (2011).avi 1.745 GB
I Pinguini di Mr. Popper - Mr. Popper's Penguins (2011).idx 299.507 KB
I Pinguini di Mr. Popper - Mr. Popper's Penguins (2011).sub 16.839 MB
Gathering some info...

Register and log in Isohunt and see no captcha anymore!

4000 symbols left
Hash 8117A619888AA1939504284AAFCFDF8E1295F49D

Related torrents for "Mr. Popper's Penguins (2011) - I Pinguini di Mr. Popper [XviD - Italian English Ac3 5.1 - Sub Ita Eng] MIRCrew [TNT Village]"

Torrent search:

italian english 2011