imdb
rating

7.6
Beyond the Hills

Beyond the Hills (2012)

Drama, Romance

Full description

Dupa Dealuri - Beyond the Hills (Cristian Mungiu, 2012)

Size 1.994 GB   72 seeders     Added 2013-01-22 07:01:11

Stream torrent
Starting‥ You need BitLord! Get it from 1BitLord.com
To download or stream you need BitLord. Visit them at BitLord.com
Alina and Voichita have been friends since their orphanage days. And they have been lovers since they became sexually mature. But despite their oath of mutual fidelity, Alina, who could not bear poverty any more, emigrated to Germany where she became a barmaid. Now she just could not take the estrangement from Alina and today she is back to Moldavia with a view to taking Voichita along with her to Germany.

General
Complete name                            : Dupa dealuri (Cristian Mungiu, 2012).avi
Format                                   : AVI
Format/Info                              : Audio Video Interleave
File size                                : 1.86 GiB
Duration                                 : 2h 25mn
Overall bit rate                         : 1 823 Kbps
Writing application                      : VirtualDubMod 1.5.4.1 (build 2178/release)
Writing library                          : VirtualDubMod build 2178/release

Video
ID                                       : 0
Format                                   : MPEG-4 Visual
Format profile                           : Advanced Simple@L5
Format settings, BVOP                    : No
Format settings, QPel                    : No
Format settings, GMC                     : No warppoints
Format settings, Matrix                  : Custom
Codec ID                                 : XVID
Codec ID/Hint                            : XviD
Duration                                 : 2h 25mn
Bit rate                                 : 1 368 Kbps
Width                                    : 720 pixels
Height                                   : 304 pixels
Display aspect ratio                     : 2.35:1
Frame rate                               : 25.000 fps
Color space                              : YUV
Chroma subsampling                       : 4:2:0
Bit depth                                : 8 bits
Scan type                                : Progressive
Compression mode                         : Lossy
Bits/(Pixel*Frame)                       : 0.250
Stream size                              : 1.39 GiB (75%)
Writing library                          : XviD 1.2.1 (UTC 2008-12-04)

Audio
ID                                       : 1
Format                                   : AC-3
Format/Info                              : Audio Coding 3
Mode extension                           : CM (complete main)
Format settings, Endianness              : Big
Codec ID                                 : 2000
Duration                                 : 2h 25mn
Bit rate mode                            : Constant
Bit rate                                 : 448 Kbps
Channel(s)                               : 6 channels
Channel positions                        : Front: L C R, Side: L R, LFE
Sampling rate                            : 48.0 KHz
Bit depth                                : 16 bits
Compression mode                         : Lossy
Stream size                              : 467 MiB (25%)
Alignment                                : Split accross interleaves
Interleave, duration                     : 96 ms (2.40 video frames)
Interleave, preload duration             : 96 ms

		
Cristian Mungiu - (2012) Beyond the Hills/Dupa dealuri (Cristian Mungiu, 2012).avi 1.994 GB
Cristian Mungiu - (2012) Beyond the Hills/Dupa dealuri (Cristian Mungiu, 2012).srt 139.687 KB
Gathering some info...

Register and log in Isohunt and see no captcha anymore!

4000 symbols left
Hash de49bcb033b0c2d97b59c9e688bdb4acdcb0a216

Related torrents for "Dupa Dealuri - Beyond the Hills (Cristian Mungiu, 2012)"

Torrent search:

2012