imdb
rating

7.4
The Master's Voice: Caveirão

The Master's Voice: Caveirão (2013)

Full description
quality   dvdrip

The Master 2013 FRENCH DVDRiP XViD - AMIABLE

Size 735.751 MB   0 seeders     Added 2013-01-23 00:33:35

Stream torrent
Starting‥ You need BitLord! Get it from BitLord.com
To download or stream you need BitLord. Visit them at BitLord.com
The Master 2013 FRENCH DVDRiP XViD - AMIABLE\r\n\r\n\r\n\r\nMovie info :\r\nGENRE............: Drame\r\nIMDB RATING......: 7.8/10 from 13,284 users   Metascore: 86/100\r\n\r\n\r\nSTATS:\r\n\r\nVideo\r\nID                               : 0\r\nFormat                           : MPEG-4 Visual\r\nFormat profile                   : Advanced Simple@L5\r\nFormat settings, BVOP            : 2\r\nFormat settings, QPel            : No\r\nFormat settings, GMC             : No warppoints\r\nFormat settings, Matrix          : Default (MPEG)\r\nMuxing mode                      : Packed bitstream\r\nCodec ID                         : XVID\r\nCodec ID/Hint                    : XviD\r\nDuration                         : 2h 17mn\r\nBit rate                         : 986 Kbps\r\nWidth                            : 720 pixels\r\nHeight                           : 320 pixels\r\nDisplay aspect ratio             : 2.25:1\r\nFrame rate                       : 29.970 fps\r\nColor space                      : YUV\r\nChroma subsampling               : 4:2:0\r\nBit depth                        : 8 bits\r\nScan type                        : Progressive\r\nCompression mode                 : Lossy\r\nBits/(Pixel*Frame)               : 0.243\r\nStream size                      : 647 MiB (92%)\r\nWriting library                  : XviD 64\r\n\r\nAudio\r\n\r\nFormat                           : MPEG Audio\r\nFormat version                   : Version 1\r\nFormat profile                   : Layer 3\r\nMode                             : Joint stereo\r\nMode extension                   : MS Stereo\r\nCodec ID                         : 55\r\nCodec ID/Hint                    : MP3\r\nDuration                         : 2h 17mn\r\nBit rate mode                    : Constant\r\nBit rate                         : 128 Kbps\r\nChannel(s)                       : 2 channels\r\nSampling rate                    : 48.0 KHz\r\nCompression mode                 : Lossy\r\nStream size                      : 56 MiB (7%)\r\nAlignment                        : Split accross interleaves\r\nInterleave, duration             : 33 ms (1.00 video frame)\r\nInterleave, preload duration     : 500 ms\r\n\r\n\r\n\r\n\r\n\r\n\r\n\r\n\r\n\r\n
The Master 2013 FRENCH DVDRiP XViD - AMIABLE/Screenshot01 .png 302.627 KB
The Master 2013 FRENCH DVDRiP XViD - AMIABLE/Screenshot02 .png 203.321 KB
The Master 2013 FRENCH DVDRiP XViD - AMIABLE/Screenshot03 .png 190.994 KB
Gathering some info...

Register and log in Isohunt and see no captcha anymore!

4000 symbols left
Hash 18d6b6729c6375575a5f27216da0ee64d2bff583

Related torrents for "The Master 2013 FRENCH DVDRiP XViD - AMIABLE"

Torrent search:

dvdrip french 2013