Sotto sotto strapazzato da anomala passione (1984) [XviD - Ita Ac3 - Sub English] MIRCrew [TNT Village]

Size 1.171 GB   2 seeders     Added 2013-01-23 01:20:33

Stream torrent
Starting‥ You need BitLord! Get it from BitLord.com
To download or stream you need BitLord. Visit them at BitLord.com
Sotto sotto strapazzato da anomala passione (1984) [XviD - Ita Ac3 - Sub English] MIRCrew [TNT Village]

[color=red]
[IMG]image[/IMG]




Sotto sotto strapazzato da anomala passione (1984)


[URL=http://www.imdb.it/title/tt0088155/][IMG]image[/IMG][/URL]

[IMG]image[/IMG]

[IMG]image[/IMG]

Regia:Lina Wertmuller
Genere: Commedia
durata: 90' min. 
Italia 1984.




[IMG]image[/IMG]

[IMG]image[/IMG]

[IMG]image[/IMG]

 Enrico Montesano, Luisa De Santis, Veronica Lario, Jole Silvani, Isa Danieli.

[IMG]image[/IMG]

[IMG]image[/IMG]

Oscar apprende dalla moglie Ester che nei momenti più intimi fra di loro è a un'altra persona che lei pensa. L'uomo la prende malissimo e crede anche di aver individuato il rivale, ma la 

verità è un'altra: una visita al parco dei "mostri" di Bomarzo ha stimolato pulsioni.........


[IMG]image[/IMG]

General
Complete name : Sotto sotto strapazzato da anomala passione (1984).avi
Format : AVI
Format/Info : Audio Video Interleave
File size : 1.09 GiB
Duration : 1h 45mn
Overall bit rate : 1 477 Kbps
Writing application : VirtualDubMod 1.5.10.2 (build 2542/release)
Writing library : VirtualDubMod build 2542/release

Video
ID : 0
Format : MPEG-4 Visual
Format profile : Advanced Simple@L5
Format settings, BVOP : Yes
Format settings, QPel : No
Format settings, GMC : No warppoints
Format settings, Matrix : Default (MPEG)
Codec ID : XVID
Codec ID/Hint : XviD
Duration : 1h 45mn
Bit rate : 1 215 Kbps
Width : 576 pixels
Height : 432 pixels
Display aspect ratio : 4:3
Frame rate : 25.000 fps
Color space : YUV
Chroma subsampling : 4:2:0
Bit depth : 8 bits
Scan type : Progressive
Bits/(Pixel*Frame) : 0.195
Stream size : 919 MiB (82%)
Writing library : XviD 1.2.1 (UTC 2008-12-04)

Audio
ID : 1
Format : AC-3
Format/Info : Audio Coding 3
Mode extension : CM (complete main)
Codec ID : 2000
Duration : 1h 45mn
Bit rate mode : Constant
Bit rate : 256 Kbps
Channel(s) : 2 channels
Channel positions : Front: L R
Sampling rate : 48.0 KHz
Bit depth : 16 bits
Stream size : 194 MiB (17%)
Alignment : Aligned on interleaves
Interleave, duration : 160 ms (4.00 video frames)
Interleave, preload duration : 160 ms





[IMG]image[/IMG]

[/color]
Sotto sotto strapazzato da anomala passione (1984).avi 1.171 GB
Gathering some info...

Register and log in Isohunt and see no captcha anymore!

4000 symbols left
Hash D49F16870E90FC258C71451D32B92E0A73A3A725