Amazing.Racer.2012.WEBHDRiP.x264.AC3-BiGKATS

Size 2.172 GB   0 seeders     Added 2013-01-23 04:02:43

Stream torrent
Starting‥ You need BitLord! Get it from BitLord.com
To download or stream you need BitLord. Visit them at BitLord.com
- 

iMDB:  http://www.imdb.com/title/tt2401575

Source:  720p WEBiOS  -  MANY THANKX

Amazing.Racer.2012.WEBHDRiP.x264.AC3-BiGKATS.mkv
Format                                   : Matroska
Format version                           : Version 2
File size                                : 2.00 GiB
Duration                                 : 1h 31mn
Overall bit rate mode                    : Variable
Overall bit rate                         : 3 122 Kbps
Encoded date                             : UTC 2013-01-22 06:24:07
Writing application                      : mkvmerge v5.8.0 (No Sleep / Pillow) built on Sep  2 2012 15:37:04
Writing library                          : libebml v1.2.3 + libmatroska v1.3.0

Video
ID                                       : 1
Format                                   : AVC
Format/Info                              : Advanced Video Codec
Format profile                           : High@L4.1
Format settings, CABAC                   : Yes
Format settings, ReFrames                : 3 frames
Codec ID                                 : V_MPEG4/ISO/AVC
Duration                                 : 1h 31mn
Bit rate mode                            : Variable
Bit rate                                 : 2 737 Kbps
Maximum bit rate                         : 40.0 Mbps
Width                                    : 720 pixels
Height                                   : 304 pixels
Display aspect ratio                     : 2.35:1
Frame rate mode                          : Constant
Frame rate                               : 23.976 fps
Color space                              : YUV
Chroma subsampling                       : 4:2:0
Bit depth                                : 8 bits
Scan type                                : Progressive
Bits/(Pixel*Frame)                       : 0.522
Stream size                              : 1.71 GiB (86%)
Title                                    : Amazing.Racer.2012.WEBHDRiP.x264.AC3-BiGKATS
Writing library                          : x264 core 129 r2245 bc13772


Audio
ID                                       : 2
Format                                   : AC-3
Format/Info                              : Audio Coding 3
Mode extension                           : CM (complete main)
Format settings, Endianness              : Big
Codec ID                                 : A_AC3
Duration                                 : 1h 31mn
Bit rate mode                            : Constant
Bit rate                                 : 384 Kbps
Channel(s)                               : 6 channels
Channel positions                        : Front: L C R, Side: L R, LFE
Sampling rate                            : 48.0 KHz
Bit depth                                : 16 bits
Compression mode                         : Lossy
Stream size                              : 252 MiB (12%)
Title                                    : 5.1
Language                                 : English
Default                                  : Yes
Forced                                   : No


image


Greets: TRiNiTY, Stonehill, AXED, DeAtHRoW, TKS69, THC, MATiNE, DQ1, Mr. Rep, UnKnOwN, HELLRAZOR, BiGKATS FAM.

If you have what it takes to be part of an awesome team, let us know! We are always looking for good reliable sources..cams, audio etc. contact us at Bigkats2013@gmail.com

Dont Talk About It, Be About It

				image-------------------------------------Torrent downloaded from http://thepiratebay.se
Amazing.Racer.2012.WEBHDRiP.x264.AC3-BiGKATS-Sample.mkv 26.651 MB
Amazing.Racer.2012.WEBHDRiP.x264.AC3-BiGKATS.mkv 2.145 GB
Amazing.Racer.2012.WEBHDRiP.x264.AC3-BiGKATS.nfo 8.1 KB
Gathering some info...

Register and log in Isohunt and see no captcha anymore!

4000 symbols left
Hash 7E8B5506998BDDA22DD77FEB3E9188617060093B