Bojhena Se Bojhena 2012 SCAMRip V2 [FULL] Bengali Movie

Size 723.716 MB   9 seeders     Added 2013-01-23 04:40:35

Stream torrent
Starting‥ You need BitLord! Get it from BitLord.com
To download or stream you need BitLord. Visit them at BitLord.com


Release info:

General
Format                                   : Matroska
Format version                           : Version 2
File size                                : 690 MiB
Duration                                 : 2h 9mn
Overall bit rate mode                    : Variable
Overall bit rate                         : 746 Kbps
Movie name                               : Bojhena Se Bojhena 2012 SCAMRip V2 [FULL] Bengali Movie

Video
ID                                       : 1
Format                                   : MPEG-4 Visual
Format profile                           : Advanced Simple@L5
Format settings, BVOP                    : Yes
Format settings, QPel                    : No
Format settings, GMC                     : No warppoints
Format settings, Matrix                  : Custom
Codec ID                                 : V_MS/VFW/FOURCC / XVID
Codec ID/Hint                            : XviD
Duration                                 : 2h 9mn
Bit rate                                 : 617 Kbps
Width                                    : 592 pixels
Height                                   : 304 pixels
Display aspect ratio                     : 1.947
Frame rate mode                          : Constant
Frame rate                               : 23.976 fps
Color space                              : YUV
Chroma subsampling                       : 4:2:0
Bit depth                                : 8 bits
Scan type                                : Progressive
Compression mode                         : Lossy
Bits/(Pixel*Frame)                       : 0.143
Stream size                              : 571 MiB (83%)
Title                                    : Bojhena Se Bojhena 2012 SCAMRip V2 [FULL] Bengali Movie
Language                                 : Bengali
Default                                  : Yes
Forced                                   : No

Audio
ID                                       : 2
Format                                   : MPEG Audio
Format version                           : Version 1
Format profile                           : Layer 3
Mode                                     : Joint stereo
Mode extension                           : MS Stereo
Muxing mode                              : Header stripping
Codec ID                                 : A_MPEG/L3
Codec ID/Hint                            : MP3
Duration                                 : 2h 9mn
Bit rate mode                            : Variable
Bit rate                                 : 114 Kbps
Nominal bit rate                         : 128 Kbps
Channel(s)                               : 2 channels
Sampling rate                            : 48.0 KHz
Compression mode                         : Lossy
Stream size                              : 106 MiB (15%)
Title                                    : Bojhena Se Bojhena 2012 SCAMRip V2 [FULL] Bengali Movie
Language                                 : Bengali
Default                                  : Yes
Forced                                   : No



Source:
credit to original movie ripper Hancock (Thanks)

Movie Info:

Payel plays a naive village girl from Balurghat who arrives in Kolkata for a job interview, but her sister is unable to meet her to direct her to her destination. She seeks the help of a stranger played by Abir, who agrees to take her as far as the bus stop. However, he ends up reluctantly travelling with her the entire day, waiting for her during her interview, and finally dropping her at her sister's home in the evening.


A parallel story follows.a metal shop worker, played by Soham, who harbours feelings towards his neighbor,a nurse, portrayed by Mimi. Being shy and soft-spoken, he doesn't talk to her, but continues to watch her every morning for six months. She, however, is bold and forthcoming and puts him through several tests.

Cast & Crew :

Producer : Shree Venkatesh Films

Director : Raj Chakraborty

Star Cast :

Soham Chakraborty

Payel Sarkar

Abir Chattopadhyay

Mimi Chakraborty

Note: This is the Full Movie with Ending..The previous release had the ending missing

Screen Shot:
 
image 
image 
image 
image 
image 
image		
Bojhena Se Bojhena 2012 SCAMRip V2 [FULL] Bengali Movie.mkv 723.716 MB
Torrent Downloaded From Digtorrent.org.txt 346 B
Torrent downloaded from souravfile torrents on BTScene.eu.txt 69 B
Gathering some info...

Register and log in Isohunt and see no captcha anymore!

4000 symbols left
Hash 6207A72EE3D25030F41C3EE6EE8AC4C3431751F6