imdb
rating

7.5
The Monster

The Monster (1994)

Comedy

Full description
quality   hdtv hd x264

Becky G ft. Will.i.am - Problem (The Monster Remix) 720p [Sbyky]

Size 67.346 MB   0 seeders     Added 2013-01-23 17:20:26

Stream torrent
Starting‥ You need BitLord! Get it from BitLord.com
To download or stream you need BitLord. Visit them at BitLord.com
 image

General
Complete name                            : Becky G ft. Will.i.am - Problem (The Monster Remix) 720p [Sbyky].mp4
Format                                   : MPEG-4
Format profile                           : Base Media / Version 2
Codec ID                                 : mp42
File size                                : 64.2 MiB
Duration                                 : 3mn 23s
Overall bit rate mode                    : Variable
Overall bit rate                         : 2 646 Kbps
Encoded date                             : UTC 2012-09-10 15:52:17
Tagged date                              : UTC 2012-09-10 15:52:17
gsst                                     : 0
gstd                                     : 203755
gssd                                     : BADC237E5HH1358924271838219
gshh                                     :

Video
ID                                       : 1
Format                                   : AVC
Format/Info                              : Advanced Video Codec
Format profile                           : High@L3.1
Format settings, CABAC                   : Yes
Format settings, ReFrames                : 1 frame
Codec ID                                 : avc1
Codec ID/Info                            : Advanced Video Coding
Duration                                 : 3mn 23s
Bit rate                                 : 2 451 Kbps
Maximum bit rate                         : 10.1 Mbps
Width                                    : 1 280 pixels
Height                                   : 720 pixels
Display aspect ratio                     : 16:9
Frame rate mode                          : Constant
Frame rate                               : 23.976 fps
Color space                              : YUV
Chroma subsampling                       : 4:2:0
Bit depth                                : 8 bits
Scan type                                : Progressive
Bits/(Pixel*Frame)                       : 0.111
Stream size                              : 59.5 MiB (93%)
Tagged date                              : UTC 2012-09-10 15:52:17

Audio
ID                                       : 2
Format                                   : AAC
Format/Info                              : Advanced Audio Codec
Format profile                           : LC
Codec ID                                 : 40
Duration                                 : 3mn 23s
Bit rate mode                            : Variable
Bit rate                                 : 192 Kbps
Maximum bit rate                         : 202 Kbps
Channel(s)                               : 2 channels
Channel positions                        : Front: L R
Sampling rate                            : 44.1 KHz
Compression mode                         : Lossy
Stream size                              : 4.66 MiB (7%)
Title                                    : IsoMedia File Produced by Google, 5-11-2011
Encoded date                             : UTC 2012-09-10 15:52:17
Tagged date                              : UTC 2012-09-10 15:52:17

Shared By Sbyky 
image 
image		
Becky G ft. Will.i.am - Problem (The Monster Remix) 720p [Sbyky].mp4 67.346 MB
Gathering some info...

Register and log in Isohunt and see no captcha anymore!

4000 symbols left
Hash AC10419F8FE839E9A69E0202111B1D41A5F11DDE

Related torrents for "Becky G ft. Will.i.am - Problem (The Monster Remix) 720p [Sbyky]"

Torrent search:

hd