Blind Melon Letters From A Porcupine Videos Avi 542p Ac3 5.1

Size 514.328 MB   0 seeders     Added 2013-01-23 22:18:46

Stream torrent
Starting‥ You need BitLord! Get it from 1BitLord.com
To download or stream you need BitLord. Visit them at BitLord.com
Blind Melon Letters From A Porcupine Videos Avi 542p Ac3 5.1

1.Dear Ol' Dad 		
2.I Wonder 		
3.No Rain 		
4.Tones Of Home 		
5.Change 		
6.Galaxie 		
7.Toes Across The Floor 		
8.Soul One 

General 
Blind Melon Letters From A Porcupine Videos Avi Ac3 5.1
Format : AVI 
Format/Info : Audio Video Interleave 
File size : 491 MiB 
Duration : 30mn 58s 
Overall bit rate : 2 214 Kbps 
Movie name : BLIND MELON LETTERS FROM A PORCUPINE.Title1.DVDRip 
Writing application : Lavf53.21.0 
Original source form/Name : BLIND MELON LETTERS FROM A PORCUPINE 

Video 
ID : 0 
Format : AVC 
Format/Info : Advanced Video Codec 
Format profile : Main@L3.1 
Format settings, CABAC : Yes 
Format settings, ReFrames : 2 frames 
Codec ID : H264 
Duration : 30mn 58s 
Bit rate : 1 754 Kbps 
Width : 720 pixels 
Height : 542 pixels 
Display aspect ratio : 4:3 
Frame rate : 29.970 fps 
Color space : YUV 
Chroma subsampling : 4:2:0 
Bit depth : 8 bits 
Scan type : Progressive 
Bits/(Pixel*Frame) : 0.150 
Stream size : 389 MiB (79%) 
Writing library : x264 core 
Color primaries : BT.601 NTSC 
Transfer characteristics : BT.709 
Matrix coefficients : BT.601 

Audio 
ID : 1 
Format : AC-3 
Format/Info : Audio Coding 3 
Mode extension : CM (complete main) 
Format settings, Endianness : Big 
Codec ID : 2000 
Duration : 30mn 57s 
Bit rate mode : Constant 
Bit rate : 448 Kbps 
Channel(s) : 6 channels 
Channel positions : Front: L C R, Side: L R, LFE 
Sampling rate : 48.0 KHz 
Bit depth : 16 bits 
Compression mode : Lossy 
Stream size : 99.2 MiB (20%) 
Alignment : Aligned on interleaves 
Interleave, duration : 32 ms (0.96 video frame)		
Blind Melon Letters From A Porcupine Videos Avi 532p Ac3 5.1.avi 514.328 MB
Gathering some info...

Register and log in Isohunt and see no captcha anymore!

4000 symbols left
Hash 46F72AAAFC463A40C598F2DB6F2517CD2B99D0DF

Related torrents for "Blind Melon Letters From A Porcupine Videos Avi 542p Ac3 5.1"

Torrent search:

ac3